  0
SECTION
  2
HEADER
  9
$ACADVER
  1
AC1015
  9
$ACADMAINTVER
 70
    20
  9
$DWGCODEPAGE
  3
ANSI_1251
  9
$INSBASE
 10
0.0
 20
0.0
 30
0.0
  9
$EXTMIN
 10
467.9140848012994
 20
12.38818865579924
 30
0.0
  9
$EXTMAX
 10
8580.700989913905
 20
3198.794129234399
 30
0.0
  9
$LIMMIN
 10
0.0
 20
0.0
  9
$LIMMAX
 10
420.0
 20
297.0
  9
$ORTHOMODE
 70
     0
  9
$REGENMODE
 70
     1
  9
$FILLMODE
 70
     1
  9
$QTEXTMODE
 70
     0
  9
$MIRRTEXT
 70
     0
  9
$LTSCALE
 40
1.0
  9
$ATTMODE
 70
     1
  9
$TEXTSIZE
 40
8.011790474656891
  9
$TRACEWID
 40
1.0
  9
$TEXTSTYLE
  7
Standard
  9
$CLAYER
  8
0
  9
$CELTYPE
  6
ByBlock
  9
$CECOLOR
 62
   256
  9
$CELTSCALE
 40
4.0
  9
$DISPSILH
 70
     0
  9
$DIMSCALE
 40
1.0
  9
$DIMASZ
 40
2.5
  9
$DIMEXO
 40
0.625
  9
$DIMDLI
 40
3.75
  9
$DIMRND
 40
0.0
  9
$DIMDLE
 40
0.0
  9
$DIMEXE
 40
1.25
  9
$DIMTP
 40
0.0
  9
$DIMTM
 40
0.0
  9
$DIMTXT
 40
2.5
  9
$DIMCEN
 40
2.5
  9
$DIMTSZ
 40
0.0
  9
$DIMTOL
 70
     0
  9
$DIMLIM
 70
     0
  9
$DIMTIH
 70
     0
  9
$DIMTOH
 70
     0
  9
$DIMSE1
 70
     0
  9
$DIMSE2
 70
     0
  9
$DIMTAD
 70
     1
  9
$DIMZIN
 70
     8
  9
$DIMBLK
  1

  9
$DIMASO
 70
     1
  9
$DIMSHO
 70
     1
  9
$DIMPOST
  1

  9
$DIMAPOST
  1

  9
$DIMALT
 70
     0
  9
$DIMALTD
 70
     3
  9
$DIMALTF
 40
0.03937007874016
  9
$DIMLFAC
 40
1.0
  9
$DIMTOFL
 70
     1
  9
$DIMTVP
 40
0.0
  9
$DIMTIX
 70
     0
  9
$DIMSOXD
 70
     0
  9
$DIMSAH
 70
     0
  9
$DIMBLK1
  1

  9
$DIMBLK2
  1

  9
$DIMSTYLE
  2
ISO-25
  9
$DIMCLRD
 70
     0
  9
$DIMCLRE
 70
     0
  9
$DIMCLRT
 70
     0
  9
$DIMTFAC
 40
1.0
  9
$DIMGAP
 40
0.625
  9
$DIMJUST
 70
     0
  9
$DIMSD1
 70
     0
  9
$DIMSD2
 70
     0
  9
$DIMTOLJ
 70
     0
  9
$DIMTZIN
 70
     8
  9
$DIMALTZ
 70
     0
  9
$DIMALTTZ
 70
     0
  9
$DIMUPT
 70
     0
  9
$DIMDEC
 70
     2
  9
$DIMTDEC
 70
     2
  9
$DIMALTU
 70
     2
  9
$DIMALTTD
 70
     3
  9
$DIMTXSTY
  7
Standard
  9
$DIMAUNIT
 70
     0
  9
$DIMADEC
 70
     0
  9
$DIMALTRND
 40
0.0
  9
$DIMAZIN
 70
     0
  9
$DIMDSEP
 70
    44
  9
$DIMATFIT
 70
     3
  9
$DIMFRAC
 70
     0
  9
$DIMLDRBLK
  1

  9
$DIMLUNIT
 70
     2
  9
$DIMLWD
 70
    -2
  9
$DIMLWE
 70
    -2
  9
$DIMTMOVE
 70
     0
  9
$LUNITS
 70
     2
  9
$LUPREC
 70
     4
  9
$SKETCHINC
 40
1.0
  9
$FILLETRAD
 40
0.0
  9
$AUNITS
 70
     0
  9
$AUPREC
 70
     0
  9
$MENU
  1
.
  9
$ELEVATION
 40
0.0
  9
$PELEVATION
 40
0.0
  9
$THICKNESS
 40
0.0
  9
$LIMCHECK
 70
     0
  9
$CHAMFERA
 40
0.0
  9
$CHAMFERB
 40
0.0
  9
$CHAMFERC
 40
0.0
  9
$CHAMFERD
 40
0.0
  9
$SKPOLY
 70
     0
  9
$TDCREATE
 40
2454708.089863114
  9
$TDUCREATE
 40
2454707.923196447
  9
$TDUPDATE
 40
2454987.586914421
  9
$TDUUPDATE
 40
2454987.420247754
  9
$TDINDWG
 40
0.6797193519
  9
$TDUSRTIMER
 40
0.6797139236
  9
$USRTIMER
 70
     1
  9
$ANGBASE
 50
0.0
  9
$ANGDIR
 70
     0
  9
$PDMODE
 70
     0
  9
$PDSIZE
 40
0.0
  9
$PLINEWID
 40
0.0
  9
$SPLFRAME
 70
     0
  9
$SPLINETYPE
 70
     6
  9
$SPLINESEGS
 70
     8
  9
$HANDSEED
  5
3552
  9
$SURFTAB1
 70
     6
  9
$SURFTAB2
 70
     6
  9
$SURFTYPE
 70
     6
  9
$SURFU
 70
     6
  9
$SURFV
 70
     6
  9
$UCSBASE
  2

  9
$UCSNAME
  2

  9
$UCSORG
 10
0.0
 20
0.0
 30
0.0
  9
$UCSXDIR
 10
1.0
 20
0.0
 30
0.0
  9
$UCSYDIR
 10
0.0
 20
1.0
 30
0.0
  9
$UCSORTHOREF
  2

  9
$UCSORTHOVIEW
 70
     1
  9
$UCSORGTOP
 10
0.0
 20
0.0
 30
0.0
  9
$UCSORGBOTTOM
 10
0.0
 20
0.0
 30
0.0
  9
$UCSORGLEFT
 10
0.0
 20
0.0
 30
0.0
  9
$UCSORGRIGHT
 10
0.0
 20
0.0
 30
0.0
  9
$UCSORGFRONT
 10
0.0
 20
0.0
 30
0.0
  9
$UCSORGBACK
 10
0.0
 20
0.0
 30
0.0
  9
$PUCSBASE
  2

  9
$PUCSNAME
  2

  9
$PUCSORG
 10
0.0
 20
0.0
 30
0.0
  9
$PUCSXDIR
 10
1.0
 20
0.0
 30
0.0
  9
$PUCSYDIR
 10
0.0
 20
1.0
 30
0.0
  9
$PUCSORTHOREF
  2

  9
$PUCSORTHOVIEW
 70
     0
  9
$PUCSORGTOP
 10
0.0
 20
0.0
 30
0.0
  9
$PUCSORGBOTTOM
 10
0.0
 20
0.0
 30
0.0
  9
$PUCSORGLEFT
 10
0.0
 20
0.0
 30
0.0
  9
$PUCSORGRIGHT
 10
0.0
 20
0.0
 30
0.0
  9
$PUCSORGFRONT
 10
0.0
 20
0.0
 30
0.0
  9
$PUCSORGBACK
 10
0.0
 20
0.0
 30
0.0
  9
$USERI1
 70
     0
  9
$USERI2
 70
     0
  9
$USERI3
 70
     0
  9
$USERI4
 70
     0
  9
$USERI5
 70
     0
  9
$USERR1
 40
0.0
  9
$USERR2
 40
0.0
  9
$USERR3
 40
0.0
  9
$USERR4
 40
0.0
  9
$USERR5
 40
0.0
  9
$WORLDVIEW
 70
     1
  9
$SHADEDGE
 70
     3
  9
$SHADEDIF
 70
    70
  9
$TILEMODE
 70
     1
  9
$MAXACTVP
 70
    64
  9
$PINSBASE
 10
0.0
 20
0.0
 30
0.0
  9
$PLIMCHECK
 70
     0
  9
$PEXTMIN
 10
0.0
 20
0.0
 30
0.0
  9
$PEXTMAX
 10
0.0
 20
0.0
 30
0.0
  9
$PLIMMIN
 10
0.0
 20
0.0
  9
$PLIMMAX
 10
12.0
 20
9.0
  9
$UNITMODE
 70
     0
  9
$VISRETAIN
 70
     1
  9
$PLINEGEN
 70
     0
  9
$PSLTSCALE
 70
     1
  9
$TREEDEPTH
 70
  3020
  9
$CMLSTYLE
  2
Standard
  9
$CMLJUST
 70
     0
  9
$CMLSCALE
 40
20.0
  9
$PROXYGRAPHICS
 70
     1
  9
$MEASUREMENT
 70
     1
  9
$CELWEIGHT
370
    -1
  9
$ENDCAPS
280
     0
  9
$JOINSTYLE
280
     0
  9
$LWDISPLAY
290
     1
  9
$INSUNITS
 70
     4
  9
$HYPERLINKBASE
  1

  9
$STYLESHEET
  1

  9
$XEDIT
290
     1
  9
$CEPSNTYPE
380
     0
  9
$PSTYLEMODE
290
     1
  9
$FINGERPRINTGUID
  2
{2BAA0608-E080-40A4-8C76-46FC2510F599}
  9
$VERSIONGUID
  2
{06D1611A-3EED-453A-80B2-EC9B5938A37B}
  9
$EXTNAMES
290
     1
  9
$PSVPSCALE
 40
0.0
  9
$OLESTARTUP
290
     0
  0
ENDSEC
  0
SECTION
  2
CLASSES
  0
CLASS
  1
ACDBDICTIONARYWDFLT
  2
AcDbDictionaryWithDefault
  3
ObjectDBX Classes
 90
        0
280
     0
281
     0
  0
CLASS
  1
ACDBPLACEHOLDER
  2
AcDbPlaceHolder
  3
ObjectDBX Classes
 90
        0
280
     0
281
     0
  0
CLASS
  1
LAYOUT
  2
AcDbLayout
  3
ObjectDBX Classes
 90
        0
280
     0
281
     0
  0
CLASS
  1
DICTIONARYVAR
  2
AcDbDictionaryVar
  3
ObjectDBX Classes
 90
        0
280
     0
281
     0
  0
CLASS
  1
TABLESTYLE
  2
AcDbTableStyle
  3
ObjectDBX Classes
 90
     4095
280
     0
281
     0
  0
CLASS
  1
MATERIAL
  2
AcDbMaterial
  3
ObjectDBX Classes
 90
     1153
280
     0
281
     0
  0
CLASS
  1
VISUALSTYLE
  2
AcDbVisualStyle
  3
ObjectDBX Classes
 90
     4095
280
     0
281
     0
  0
CLASS
  1
SCALE
  2
AcDbScale
  3
ObjectDBX Classes
 90
     1153
280
     0
281
     0
  0
CLASS
  1
MLEADERSTYLE
  2
AcDbMLeaderStyle
  3
ACDB_MLEADERSTYLE_CLASS
 90
     4095
280
     0
281
     0
  0
CLASS
  1
CELLSTYLEMAP
  2
AcDbCellStyleMap
  3
ObjectDBX Classes
 90
     1152
280
     0
281
     0
  0
CLASS
  1
DIMASSOC
  2
AcDbDimAssoc
  3
"AcDbDimAssoc|Product Desc:     AcDim ARX App For Dimension|Company:          Autodesk, Inc.|WEB Address:      www.autodesk.com"
 90
        0
280
     0
281
     0
  0
CLASS
  1
SORTENTSTABLE
  2
AcDbSortentsTable
  3
ObjectDBX Classes
 90
        0
280
     0
281
     0
  0
CLASS
  1
DATALINK
  2
AcDbDataLink
  3
ObjectDBX Classes
 90
     1152
280
     0
281
     0
  0
CLASS
  1
TABLECONTENT
  2
AcDbTableContent
  3
ObjectDBX Classes
 90
     1152
280
     0
281
     0
  0
CLASS
  1
ACAD_TABLE
  2
AcDbTable
  3
ObjectDBX Classes
 90
    33793
280
     0
281
     1
  0
CLASS
  1
HELIX
  2
AcDbHelix
  3
ObjectDBX Classes
 90
    36863
280
     0
281
     1
  0
ENDSEC
  0
SECTION
  2
TABLES
  0
TABLE
  2
VPORT
  5
8
102
{ACAD_XDICTIONARY
360
1280
102
}
330
0
100
AcDbSymbolTable
 70
     1
  0
VPORT
  5
EA
330
8
100
AcDbSymbolTableRecord
100
AcDbViewportTableRecord
  2
*Active
 70
     0
 10
0.0
 20
0.0
 11
1.0
 21
1.0
 12
4825.881941972693
 22
1995.32066407204
 13
0.0
 23
0.0
 14
10.0
 24
10.0
 15
10.0
 25
10.0
 16
0.0
 26
0.0
 36
1.0
 17
0.0
 27
0.0
 37
0.0
 40
5450.296025506167
 41
2.485451761102603
 42
50.0
 43
0.0
 44
0.0
 50
0.0
 51
0.0
 71
     0
 72
  1000
 73
     1
 74
     3
 75
     0
 76
     0
 77
     0
 78
     0
281
     0
 65
     1
110
0.0
120
0.0
130
0.0
111
1.0
121
0.0
131
0.0
112
0.0
122
1.0
132
0.0
 79
     0
146
0.0
  0
ENDTAB
  0
TABLE
  2
LTYPE
  5
5
330
0
100
AcDbSymbolTable
 70
     4
  0
LTYPE
  5
14
330
5
100
AcDbSymbolTableRecord
100
AcDbLinetypeTableRecord
  2
ByBlock
 70
     0
  3

 72
    65
 73
     0
 40
0.0
  0
LTYPE
  5
15
330
5
100
AcDbSymbolTableRecord
100
AcDbLinetypeTableRecord
  2
ByLayer
 70
     0
  3

 72
    65
 73
     0
 40
0.0
  0
LTYPE
  5
16
330
5
100
AcDbSymbolTableRecord
100
AcDbLinetypeTableRecord
  2
Continuous
 70
     0
  3
Solid line
 72
    65
 73
     0
 40
0.0
  0
LTYPE
  5
D52
330
5
100
AcDbSymbolTableRecord
100
AcDbLinetypeTableRecord
  2
ACAD_ISO07W100
 70
     0
  3
ISO пунктирная . . . . . . . . . . . . . . . . . . . .
 72
    65
 73
     2
 40
3.0
 49
0.0
 74
     0
 49
-3.0
 74
     0
  0
LTYPE
  5
15C4
330
5
100
AcDbSymbolTableRecord
100
AcDbLinetypeTableRecord
  2
ACAD_ISO02W100
 70
     0
  3
ISO штриховая __ __ __ __ __ __ __ __ __ __ __ __ __
 72
    65
 73
     2
 40
15.0
 49
12.0
 74
     0
 49
-3.0
 74
     0
  0
LTYPE
  5
16F0
330
5
100
AcDbSymbolTableRecord
100
AcDbLinetypeTableRecord
  2
GOST4
 70
     0
  3
 center ____ _ ____ _ ____ _ ____ _ ____ _ ____
 72
    65
 73
     4
 40
24.0
 49
20.0
 74
     0
 49
-1.5
 74
     0
 49
1.0
 74
     0
 49
-1.5
 74
     0
  0
ENDTAB
  0
TABLE
  2
LAYER
  5
2
102
{ACAD_XDICTIONARY
360
1701
102
}
330
0
100
AcDbSymbolTable
 70
     5
  0
LAYER
  5
10
102
{ACAD_XDICTIONARY
360
13C
102
}
330
2
100
AcDbSymbolTableRecord
100
AcDbLayerTableRecord
  2
0
 70
     0
 62
     7
  6
Continuous
370
    -3
390
F
  0
LAYER
  5
1BA
330
2
100
AcDbSymbolTableRecord
100
AcDbLayerTableRecord
  2
Defpoints
 70
     0
 62
     7
  6
Continuous
290
     0
370
    -3
390
F
  0
LAYER
  5
16F1
330
2
100
AcDbSymbolTableRecord
100
AcDbLayerTableRecord
  2
охрана_трасса
 70
     0
 62
     1
  6
Continuous
370
    25
390
F
1001
AcAecLayerStandard
1000

1000

  0
LAYER
  5
16F3
330
2
100
AcDbSymbolTableRecord
100
AcDbLayerTableRecord
  2
контр_наряда
 70
     0
 62
   240
  6
GOST4
370
    30
390
F
1001
AcAecLayerStandard
1000

1000

  0
LAYER
  5
16F5
330
2
100
AcDbSymbolTableRecord
100
AcDbLayerTableRecord
  2
РАМКА
 70
     0
 62
     7
  6
Continuous
370
    -3
390
F
  0
ENDTAB
  0
TABLE
  2
STYLE
  5
3
330
0
100
AcDbSymbolTable
 70
     8
  0
STYLE
  5
11
330
3
100
AcDbSymbolTableRecord
100
AcDbTextStyleTableRecord
  2
Standard
 70
     0
 40
0.0
 41
1.0
 50
0.0
 71
     0
 42
8.011790474656891
  3
txt.shx
  4

  0
STYLE
  5
132
330
3
100
AcDbSymbolTableRecord
100
AcDbTextStyleTableRecord
  2
Аннотативный
 70
     0
 40
0.0
 41
1.0
 50
0.0
 71
     0
 42
2.5
  3
txt.shx
  4

1001
AcadAnnotative
1000
AnnotativeData
1002
{
1070
     1
1070
     1
1002
}
  0
STYLE
  5
D51
330
3
100
AcDbSymbolTableRecord
100
AcDbTextStyleTableRecord
  2

 70
     1
 40
0.0
 41
1.0
 50
0.0
 71
     0
 42
3.398300173163079
  3
ltypeshp.shx
  4

  0
STYLE
  5
16F7
330
3
100
AcDbSymbolTableRecord
100
AcDbTextStyleTableRecord
  2
style1
 70
     0
 40
0.0
 41
1.0
 50
0.0
 71
     0
 42
5.005155820006621
  3
TAHOMA.TTF
  4

1001
ACAD
1000
Tahoma
1071
       34
  0
STYLE
  5
16F8
330
3
100
AcDbSymbolTableRecord
100
AcDbTextStyleTableRecord
  2
SPDS
 70
     0
 40
3.0
 41
1.0
 50
0.0
 71
     0
 42
3.0
  3
GOST_A.TTF
  4

1001
ACAD
1000
GOST type A
1071
       34
  0
STYLE
  5
16F9
330
3
100
AcDbSymbolTableRecord
100
AcDbTextStyleTableRecord
  2
стиль2
 70
     0
 40
3.0
 41
1.0
 50
0.0
 71
     0
 42
3.0
  3
TIMES.TTF
  4

1001
ACAD
1000
Times New Roman
1071
       18
  0
STYLE
  5
16FA
330
3
100
AcDbSymbolTableRecord
100
AcDbTextStyleTableRecord
  2
GENERATED_STYLE_14
 70
     0
 40
0.0
 41
1.0
 50
0.0
 71
     0
 42
0.2
  3
TIMES.TTF
  4

1001
ACAD
1000
Times New Roman CYR
1071
    52242
  0
STYLE
  5
16FB
330
3
100
AcDbSymbolTableRecord
100
AcDbTextStyleTableRecord
  2
style2
 70
     0
 40
0.0
 41
1.0
 50
0.0
 71
     0
 42
2.5
  3
TIMES.TTF
  4

1001
ACAD
1000
Times New Roman
1071
       18
  0
ENDTAB
  0
TABLE
  2
VIEW
  5
6
330
0
100
AcDbSymbolTable
 70
     0
  0
ENDTAB
  0
TABLE
  2
UCS
  5
7
330
0
100
AcDbSymbolTable
 70
     0
  0
ENDTAB
  0
TABLE
  2
APPID
  5
9
330
0
100
AcDbSymbolTable
 70
    13
  0
APPID
  5
12
330
9
100
AcDbSymbolTableRecord
100
AcDbRegAppTableRecord
  2
ACAD
 70
     0
  0
APPID
  5
9E
330
9
100
AcDbSymbolTableRecord
100
AcDbRegAppTableRecord
  2
ACAD_PSEXT
 70
     0
  0
APPID
  5
133
330
9
100
AcDbSymbolTableRecord
100
AcDbRegAppTableRecord
  2
AcadAnnoPO
 70
     0
  0
APPID
  5
134
330
9
100
AcDbSymbolTableRecord
100
AcDbRegAppTableRecord
  2
AcadAnnotative
 70
     0
  0
APPID
  5
135
330
9
100
AcDbSymbolTableRecord
100
AcDbRegAppTableRecord
  2
ACAD_DSTYLE_DIMJAG
 70
     0
  0
APPID
  5
136
330
9
100
AcDbSymbolTableRecord
100
AcDbRegAppTableRecord
  2
ACAD_DSTYLE_DIMTALN
 70
     0
  0
APPID
  5
165
330
9
100
AcDbSymbolTableRecord
100
AcDbRegAppTableRecord
  2
ACAD_MLEADERVER
 70
     0
  0
APPID
  5
1B1
330
9
100
AcDbSymbolTableRecord
100
AcDbRegAppTableRecord
  2
ACAD_EXEMPT_FROM_CAD_STANDARDS
 70
     0
  0
APPID
  5
232
330
9
100
AcDbSymbolTableRecord
100
AcDbRegAppTableRecord
  2
ACAD_DSTYLE_DIMRADIAL_EXTENSION
 70
     0
  0
APPID
  5
16FE
330
9
100
AcDbSymbolTableRecord
100
AcDbRegAppTableRecord
  2
AcAecLayerStandard
 70
     0
  0
APPID
  5
16FF
330
9
100
AcDbSymbolTableRecord
100
AcDbRegAppTableRecord
  2
ACAD_DSTYLE_DIMJOGGED_JOGANGLE_SYMBOL
 70
     0
  0
APPID
  5
1700
330
9
100
AcDbSymbolTableRecord
100
AcDbRegAppTableRecord
  2
AcDbBlockRepETag
 70
     0
  0
APPID
  5
2954
330
9
100
AcDbSymbolTableRecord
100
AcDbRegAppTableRecord
  2
ACAD_DSTYLE_DIMEXT_LENGTH
 70
     0
  0
ENDTAB
  0
TABLE
  2
DIMSTYLE
  5
A
330
0
100
AcDbSymbolTable
 70
     4
100
AcDbDimStyleTable
 71
     2
340
27
340
137
  0
DIMSTYLE
105
27
102
{ACAD_REACTORS
330
325A
330
3272
330
32BA
330
32CC
330
32DE
102
}
330
A
100
AcDbSymbolTableRecord
100
AcDbDimStyleTableRecord
  2
ISO-25
 70
     0
 41
2.5
 42
0.625
 43
3.75
 44
1.25
 73
     0
 74
     0
 77
     1
 78
     8
140
2.5
141
2.5
143
0.03937007874016
147
0.625
171
     3
172
     1
271
     2
272
     2
274
     3
278
    44
283
     0
284
     8
340
11
  0
DIMSTYLE
105
137
330
A
100
AcDbSymbolTableRecord
100
AcDbDimStyleTableRecord
  2
Аннотативный
 70
     0
 40
0.0
 41
2.5
 42
0.625
 43
3.75
 44
1.25
 73
     0
 74
     0
 77
     1
 78
     8
140
2.5
141
2.5
143
0.03937007874016
147
0.625
171
     3
172
     1
271
     2
272
     2
274
     3
278
    44
283
     0
284
     8
340
11
1001
AcadAnnotative
1000
AnnotativeData
1002
{
1070
     1
1070
     1
1002
}
1001
ACAD_DSTYLE_DIMJAG
1070
   388
1040
1.5
1001
ACAD_DSTYLE_DIMTALN
1070
   392
1070
     0
  0
DIMSTYLE
105
16FC
330
A
100
AcDbSymbolTableRecord
100
AcDbDimStyleTableRecord
  2
Standard
 70
     0
140
1.03
340
11
1001
ACAD_DSTYLE_DIMEXT_LENGTH
1070
   378
1040
0.18
1001
ACAD_DSTYLE_DIMJOGGED_JOGANGLE_SYMBOL
1070
   384
1040
1.570796326794896
  0
DIMSTYLE
105
16FD
330
A
100
AcDbSymbolTableRecord
100
AcDbDimStyleTableRecord
  2
SPDS
 70
     0
 40
0.0
 41
2.5
 42
0.625
 43
3.75
 44
1.25
 45
0.001
 46
2.0
 73
     0
 77
     1
 78
     8
 79
     2
140
2.5
141
2.5
147
0.625
172
     1
271
     0
272
     0
279
     1
340
16F8
342
16EC
  0
ENDTAB
  0
TABLE
  2
BLOCK_RECORD
  5
1
330
0
100
AcDbSymbolTable
 70
    23
  0
BLOCK_RECORD
  5
1F
102
{ACAD_XDICTIONARY
360
1D4
102
}
330
1
100
AcDbSymbolTableRecord
100
AcDbBlockTableRecord
  2
*Model_Space
340
22
  0
BLOCK_RECORD
  5
D2
330
1
100
AcDbSymbolTableRecord
100
AcDbBlockTableRecord
  2
*Paper_Space
340
D3
  0
BLOCK_RECORD
  5
D6
330
1
100
AcDbSymbolTableRecord
100
AcDbBlockTableRecord
  2
*Paper_Space0
340
D7
  0
BLOCK_RECORD
  5
32C
102
{ACAD_XDICTIONARY
360
341
102
}
330
1
100
AcDbSymbolTableRecord
100
AcDbBlockTableRecord
  2
A$C58292EC3
340
0
1001
ACAD
1000
DesignCenter Data
1002
{
1070
     1
1070
     4
1002
}
  0
BLOCK_RECORD
  5
37D
102
{ACAD_XDICTIONARY
360
382
102
}
330
1
100
AcDbSymbolTableRecord
100
AcDbBlockTableRecord
  2
A$C0C056083
340
0
1001
ACAD
1000
DesignCenter Data
1002
{
1070
     1
1070
     4
1002
}
  0
BLOCK_RECORD
  5
3E0
102
{ACAD_XDICTIONARY
360
3F8
102
}
330
1
100
AcDbSymbolTableRecord
100
AcDbBlockTableRecord
  2
A$C08572084
340
0
1001
ACAD
1000
DesignCenter Data
1002
{
1070
     1
1070
     4
1002
}
  0
BLOCK_RECORD
  5
404
102
{ACAD_XDICTIONARY
360
406
102
}
330
1
100
AcDbSymbolTableRecord
100
AcDbBlockTableRecord
  2
A$C03C361AD
340
0
1001
ACAD
1000
DesignCenter Data
1002
{
1070
     1
1070
     4
1002
}
  0
BLOCK_RECORD
  5
44F
102
{ACAD_XDICTIONARY
360
454
102
}
330
1
100
AcDbSymbolTableRecord
100
AcDbBlockTableRecord
  2
A$C76993925
340
0
1001
ACAD
1000
DesignCenter Data
1002
{
1070
     1
1070
     4
1002
}
  0
BLOCK_RECORD
  5
AC7
102
{ACAD_XDICTIONARY
360
ACA
102
}
330
1
100
AcDbSymbolTableRecord
100
AcDbBlockTableRecord
  2
A$C1DD909C7
340
0
1001
ACAD
1000
DesignCenter Data
1002
{
1070
     1
1070
     4
1002
}
  0
BLOCK_RECORD
  5
C27
102
{ACAD_XDICTIONARY
360
C29
102
}
330
1
100
AcDbSymbolTableRecord
100
AcDbBlockTableRecord
  2
A$C10560E84
340
0
1001
ACAD
1000
DesignCenter Data
1002
{
1070
     1
1070
     4
1002
}
  0
BLOCK_RECORD
  5
CCA
102
{ACAD_XDICTIONARY
360
CCD
102
}
330
1
100
AcDbSymbolTableRecord
100
AcDbBlockTableRecord
  2
A$C5B9E48EF
340
0
1001
ACAD
1000
DesignCenter Data
1002
{
1070
     1
1070
     4
1002
}
  0
BLOCK_RECORD
  5
1542
102
{ACAD_XDICTIONARY
360
154B
102
}
330
1
100
AcDbSymbolTableRecord
100
AcDbBlockTableRecord
  2
A$C76EA186C
340
0
1001
ACAD
1000
DesignCenter Data
1002
{
1070
     1
1070
     4
1002
}
  0
BLOCK_RECORD
  5
15E2
102
{ACAD_XDICTIONARY
360
15E5
102
}
330
1
100
AcDbSymbolTableRecord
100
AcDbBlockTableRecord
  2
A$C09372794
340
0
1001
ACAD
1000
DesignCenter Data
1002
{
1070
     1
1070
     4
1002
}
  0
BLOCK_RECORD
  5
163B
102
{ACAD_XDICTIONARY
360
163D
102
}
330
1
100
AcDbSymbolTableRecord
100
AcDbBlockTableRecord
  2
A$C19B877B5
340
0
1001
ACAD
1000
DesignCenter Data
1002
{
1070
     1
1070
     4
1002
}
  0
BLOCK_RECORD
  5
16EC
330
1
100
AcDbSymbolTableRecord
100
AcDbBlockTableRecord
  2
_ArchTick
340
0
  0
BLOCK_RECORD
  5
1A67
102
{ACAD_XDICTIONARY
360
1A6E
102
}
330
1
100
AcDbSymbolTableRecord
100
AcDbBlockTableRecord
  2
A$C610A7A8C
340
0
1001
ACAD
1000
DesignCenter Data
1002
{
1070
     1
1070
     4
1002
}
  0
BLOCK_RECORD
  5
1D68
102
{ACAD_XDICTIONARY
360
1D6F
102
}
330
1
100
AcDbSymbolTableRecord
100
AcDbBlockTableRecord
  2
A$C13CF74D2
340
0
1001
ACAD
1000
DesignCenter Data
1002
{
1070
     1
1070
     4
1002
}
  0
BLOCK_RECORD
  5
2896
102
{ACAD_XDICTIONARY
360
2899
102
}
330
1
100
AcDbSymbolTableRecord
100
AcDbBlockTableRecord
  2
A$C68F621CA
340
0
1001
ACAD
1000
DesignCenter Data
1002
{
1070
     1
1070
     4
1002
}
  0
BLOCK_RECORD
  5
2D83
102
{ACAD_XDICTIONARY
360
2D85
102
}
330
1
100
AcDbSymbolTableRecord
100
AcDbBlockTableRecord
  2
A$C19993E8B
340
0
1001
ACAD
1000
DesignCenter Data
1002
{
1070
     1
1070
     4
1002
}
  0
BLOCK_RECORD
  5
325B
330
1
100
AcDbSymbolTableRecord
100
AcDbBlockTableRecord
  2
*D17
340
0
  0
BLOCK_RECORD
  5
3273
330
1
100
AcDbSymbolTableRecord
100
AcDbBlockTableRecord
  2
*D18
340
0
  0
BLOCK_RECORD
  5
32BB
330
1
100
AcDbSymbolTableRecord
100
AcDbBlockTableRecord
  2
*D19
340
0
  0
BLOCK_RECORD
  5
32CD
330
1
100
AcDbSymbolTableRecord
100
AcDbBlockTableRecord
  2
*D20
340
0
  0
BLOCK_RECORD
  5
32DF
330
1
100
AcDbSymbolTableRecord
100
AcDbBlockTableRecord
  2
*D21
340
0
  0
BLOCK_RECORD
  5
336E
102
{ACAD_XDICTIONARY
360
3373
102
}
330
1
100
AcDbSymbolTableRecord
100
AcDbBlockTableRecord
  2
A$C37C51527
340
0
1001
ACAD
1000
DesignCenter Data
1002
{
1070
     1
1070
     4
1002
}
  0
ENDTAB
  0
ENDSEC
  0
SECTION
  2
BLOCKS
  0
BLOCK
  5
20
330
1F
100
AcDbEntity
  8
0
100
AcDbBlockBegin
  2
*Model_Space
 70
     0
 10
0.0
 20
0.0
 30
0.0
  3
*Model_Space
  1

  0
ENDBLK
  5
21
330
1F
100
AcDbEntity
  8
0
100
AcDbBlockEnd
  0
BLOCK
  5
D4
330
D2
100
AcDbEntity
 67
     1
  8
0
100
AcDbBlockBegin
  2
*Paper_Space
 70
     0
 10
0.0
 20
0.0
 30
0.0
  3
*Paper_Space
  1

  0
ENDBLK
  5
D5
330
D2
100
AcDbEntity
 67
     1
  8
0
100
AcDbBlockEnd
  0
BLOCK
  5
D8
330
D6
100
AcDbEntity
 67
     1
  8
0
100
AcDbBlockBegin
  2
*Paper_Space0
 70
     0
 10
0.0
 20
0.0
 30
0.0
  3
*Paper_Space0
  1

  0
ENDBLK
  5
D9
330
D6
100
AcDbEntity
 67
     1
  8
0
100
AcDbBlockEnd
  0
BLOCK
  5
343
330
32C
100
AcDbEntity
  8
0
100
AcDbBlockBegin
  2
A$C58292EC3
 70
     0
 10
0.0
 20
0.0
 30
0.0
  3
A$C58292EC3
  1

  0
LINE
  5
32D
330
32C
100
AcDbEntity
  8
0
100
AcDbLine
 10
0.0
 20
2.0
 30
0.0
 11
0.0
 21
-2.0
 31
0.0
  0
LINE
  5
32E
330
32C
100
AcDbEntity
  8
0
100
AcDbLine
 10
0.0
 20
2.0
 30
0.0
 11
57.00000000000011
 21
2.0
 31
0.0
  0
LINE
  5
32F
330
32C
100
AcDbEntity
  8
0
100
AcDbLine
 10
0.0
 20
-2.0
 30
0.0
 11
57.00000000000011
 21
-2.0
 31
0.0
  0
LINE
  5
330
330
32C
100
AcDbEntity
  8
0
100
AcDbLine
 10
3.5
 20
2.0
 30
0.0
 11
3.5
 21
23.71082811543602
 31
0.0
  0
LINE
  5
331
330
32C
100
AcDbEntity
  8
0
100
AcDbLine
 10
10.5
 20
2.0
 30
0.0
 11
10.5
 21
23.71082811543602
 31
0.0
  0
LINE
  5
332
330
32C
100
AcDbEntity
  8
0
100
AcDbLine
 10
17.5
 20
2.0
 30
0.0
 11
17.5
 21
23.71082811543602
 31
0.0
  0
LINE
  5
333
330
32C
100
AcDbEntity
  8
0
100
AcDbLine
 10
24.5
 20
2.0
 30
0.0
 11
24.5
 21
23.71082811543602
 31
0.0
  0
LINE
  5
334
330
32C
100
AcDbEntity
  8
0
100
AcDbLine
 10
4.5
 20
2.0
 30
0.0
 11
4.5
 21
23.71082811543602
 31
0.0
  0
LINE
  5
335
330
32C
100
AcDbEntity
  8
0
100
AcDbLine
 10
11.5
 20
2.0
 30
0.0
 11
11.5
 21
23.71082811543602
 31
0.0
  0
LINE
  5
336
330
32C
100
AcDbEntity
  8
0
100
AcDbLine
 10
18.5
 20
2.0
 30
0.0
 11
18.5
 21
23.71082811543602
 31
0.0
  0
LINE
  5
337
330
32C
100
AcDbEntity
  8
0
100
AcDbLine
 10
25.5
 20
2.0
 30
0.0
 11
25.5
 21
23.71082811543602
 31
0.0
  0
LINE
  5
338
330
32C
100
AcDbEntity
  8
0
100
AcDbLine
 10
31.5
 20
2.0
 30
0.0
 11
31.5
 21
23.71082811543602
 31
0.0
  0
LINE
  5
339
330
32C
100
AcDbEntity
  8
0
100
AcDbLine
 10
38.5
 20
2.0
 30
0.0
 11
38.5
 21
23.71082811543602
 31
0.0
  0
LINE
  5
33A
330
32C
100
AcDbEntity
  8
0
100
AcDbLine
 10
45.49999999999999
 20
2.0
 30
0.0
 11
45.49999999999999
 21
23.71082811543602
 31
0.0
  0
LINE
  5
33B
330
32C
100
AcDbEntity
  8
0
100
AcDbLine
 10
32.5
 20
2.0
 30
0.0
 11
32.5
 21
23.71082811543602
 31
0.0
  0
LINE
  5
33C
330
32C
100
AcDbEntity
  8
0
100
AcDbLine
 10
39.5
 20
2.0
 30
0.0
 11
39.5
 21
23.71082811543602
 31
0.0
  0
LINE
  5
33D
330
32C
100
AcDbEntity
  8
0
100
AcDbLine
 10
46.5
 20
2.0
 30
0.0
 11
46.5
 21
23.71082811543602
 31
0.0
  0
LINE
  5
33E
330
32C
100
AcDbEntity
  8
0
100
AcDbLine
 10
52.5
 20
2.0
 30
0.0
 11
52.5
 21
23.71082811543602
 31
0.0
  0
LINE
  5
33F
330
32C
100
AcDbEntity
  8
0
100
AcDbLine
 10
53.5
 20
2.0
 30
0.0
 11
53.5
 21
23.71082811543602
 31
0.0
  0
LINE
  5
340
330
32C
100
AcDbEntity
  8
0
100
AcDbLine
 10
57.00000000000011
 20
-2.0
 30
0.0
 11
57.00000000000011
 21
2.0
 31
0.0
  0
ENDBLK
  5
344
330
32C
100
AcDbEntity
  8
0
100
AcDbBlockEnd
  0
BLOCK
  5
384
330
37D
100
AcDbEntity
  8
0
100
AcDbBlockBegin
  2
A$C0C056083
 70
     0
 10
0.0
 20
0.0
 30
0.0
  3
A$C0C056083
  1

  0
LINE
  5
37E
330
37D
100
AcDbEntity
  8
0
100
AcDbLine
 10
1.25
 20
2.5
 30
0.0
 11
-1.25
 21
2.5
 31
0.0
  0
LINE
  5
37F
330
37D
100
AcDbEntity
  8
0
100
AcDbLine
 10
1.25
 20
-2.5
 30
0.0
 11
-1.25
 21
-2.5
 31
0.0
  0
LINE
  5
380
330
37D
100
AcDbEntity
  8
0
100
AcDbLine
 10
-1.25
 20
2.5
 30
0.0
 11
1.25
 21
-2.5
 31
0.0
  0
LINE
  5
381
330
37D
100
AcDbEntity
  8
0
100
AcDbLine
 10
-1.25
 20
-2.5
 30
0.0
 11
1.25
 21
2.5
 31
0.0
  0
ENDBLK
  5
385
330
37D
100
AcDbEntity
  8
0
100
AcDbBlockEnd
  0
BLOCK
  5
3FA
330
3E0
100
AcDbEntity
  8
0
100
AcDbBlockBegin
  2
A$C08572084
 70
     0
 10
0.0
 20
0.0
 30
0.0
  3
A$C08572084
  1

  0
LINE
  5
3E1
330
3E0
100
AcDbEntity
  8
0
100
AcDbLine
 10
0.0
 20
0.0
 30
0.0
 11
0.0
 21
28.58464626176817
 31
0.0
  0
LINE
  5
3E2
330
3E0
100
AcDbEntity
  8
0
100
AcDbLine
 10
1.0
 20
0.0
 30
0.0
 11
1.000000000000113
 21
11.13158389992531
 31
0.0
  0
LINE
  5
3E3
330
3E0
100
AcDbEntity
  8
0
100
AcDbLine
 10
1.000000000000113
 20
12.13158389992532
 30
0.0
 11
1.000000000000113
 21
28.58464626176817
 31
0.0
  0
LINE
  5
3E4
330
3E0
100
AcDbEntity
  8
0
100
AcDbLine
 10
0.0
 20
0.0
 30
0.0
 11
0.0
 21
13.71082811543601
 31
0.0
  0
LINE
  5
3E5
330
3E0
100
AcDbEntity
  8
0
100
AcDbLine
 10
8.0
 20
0.0
 30
0.0
 11
8.0
 21
9.131583899925317
 31
0.0
  0
LINE
  5
3E6
330
3E0
100
AcDbEntity
  8
0
100
AcDbLine
 10
8.0
 20
0.0
 30
0.0
 11
8.0
 21
9.131583899925317
 31
0.0
  0
LINE
  5
3E7
330
3E0
100
AcDbEntity
  8
0
100
AcDbLine
 10
8.0
 20
14.13158389992531
 30
0.0
 11
8.0
 21
28.58464626176817
 31
0.0
  0
LINE
  5
3E8
330
3E0
100
AcDbEntity
  8
0
100
AcDbLine
 10
1.0
 20
0.0
 30
0.0
 11
1.0
 21
11.13158389992531
 31
0.0
  0
LINE
  5
3E9
330
3E0
100
AcDbEntity
  8
0
100
AcDbLine
 10
1.0
 20
12.13158389992532
 30
0.0
 11
1.0
 21
13.71082811543601
 31
0.0
  0
LINE
  5
3EA
330
3E0
100
AcDbEntity
  8
0
100
AcDbLine
 10
9.0
 20
0.0
 30
0.0
 11
8.999999999999886
 21
9.131583899925317
 31
0.0
  0
LINE
  5
3EB
330
3E0
100
AcDbEntity
  8
0
100
AcDbLine
 10
8.999999999999886
 20
14.13158389992531
 30
0.0
 11
9.000000000000113
 21
28.58464626176817
 31
0.0
  0
LINE
  5
3EC
330
3E0
100
AcDbEntity
  8
0
100
AcDbLine
 10
6.0
 20
12.88158389992531
 30
0.0
 11
6.0
 21
10.38158389992531
 31
0.0
  0
LINE
  5
3ED
330
3E0
100
AcDbEntity
  8
0
100
AcDbLine
 10
6.0
 20
10.38158389992531
 30
0.0
 11
8.5
 21
11.63158389992531
 31
0.0
  0
LINE
  5
3EE
330
3E0
100
AcDbEntity
  8
0
100
AcDbLine
 10
8.5
 20
11.63158389992531
 30
0.0
 11
6.0
 21
12.88158389992531
 31
0.0
  0
LINE
  5
3EF
330
3E0
100
AcDbEntity
  8
0
100
AcDbLine
 10
9.75
 20
14.13158389992531
 30
0.0
 11
7.25
 21
14.13158389992531
 31
0.0
  0
LINE
  5
3F0
330
3E0
100
AcDbEntity
  8
0
100
AcDbLine
 10
9.75
 20
9.131583899925317
 30
0.0
 11
7.25
 21
9.131583899925317
 31
0.0
  0
LINE
  5
3F1
330
3E0
100
AcDbEntity
  8
0
100
AcDbLine
 10
7.25
 20
14.13158389992531
 30
0.0
 11
9.75
 21
9.131583899925317
 31
0.0
  0
LINE
  5
3F2
330
3E0
100
AcDbEntity
  8
0
100
AcDbLine
 10
7.25
 20
9.131583899925317
 30
0.0
 11
9.75
 21
14.13158389992531
 31
0.0
  0
CIRCLE
  5
3F3
330
3E0
100
AcDbEntity
  8
0
100
AcDbCircle
 10
13.18553041196901
 20
11.63158389992531
 30
0.0
 40
2.499999999999886
  0
TEXT
  5
3F4
330
3E0
100
AcDbEntity
  8
0
100
AcDbText
 10
11.99525350272233
 20
9.917470246298762
 30
0.0
 40
3.398300173163079
  1
М
100
AcDbText
  0
LINE
  5
3F5
330
3E0
100
AcDbEntity
  8
0
100
AcDbLine
 10
6.0
 20
11.13158389992531
 30
0.0
 11
1.0
 21
11.13158389992531
 31
0.0
  0
LINE
  5
3F6
330
3E0
100
AcDbEntity
  8
0
100
AcDbLine
 10
6.0
 20
12.13158389992532
 30
0.0
 11
1.0
 21
12.13158389992532
 31
0.0
  0
LINE
  5
3F7
330
3E0
100
AcDbEntity
  8
0
100
AcDbLine
 10
8.5
 20
11.63158389992531
 30
0.0
 11
10.68553041196912
 21
11.63158389992531
 31
0.0
  0
ENDBLK
  5
3FB
330
3E0
100
AcDbEntity
  8
0
100
AcDbBlockEnd
  0
BLOCK
  5
408
330
404
100
AcDbEntity
  8
0
100
AcDbBlockBegin
  2
A$C03C361AD
 70
     0
 10
0.0
 20
0.0
 30
0.0
  3
A$C03C361AD
  1

  0
LINE
  5
405
330
404
100
AcDbEntity
  8
0
100
AcDbLine
 10
9.0
 20
0.0
 30
0.0
 11
9.0
 21
9.131583899925317
 31
0.0
  0
ENDBLK
  5
409
330
404
100
AcDbEntity
  8
0
100
AcDbBlockEnd
  0
BLOCK
  5
456
330
44F
100
AcDbEntity
  8
0
100
AcDbBlockBegin
  2
A$C76993925
 70
     0
 10
0.0
 20
0.0
 30
0.0
  3
A$C76993925
  1

  0
LINE
  5
450
330
44F
100
AcDbEntity
  8
0
100
AcDbLine
 10
-2.180828265130571
 20
-1.222288050341262
 30
0.0
 11
2.180828265130571
 21
-1.222288050341148
 31
0.0
  0
LINE
  5
451
330
44F
100
AcDbEntity
  8
0
100
AcDbLine
 10
-2.180828265130571
 20
-1.222288050341262
 30
0.0
 11
0.0
 21
2.499999999999886
 31
0.0
  0
LINE
  5
452
330
44F
100
AcDbEntity
  8
0
100
AcDbLine
 10
0.0
 20
2.499999999999886
 30
0.0
 11
2.180828265130571
 21
-1.222288050341148
 31
0.0
  0
CIRCLE
  5
453
330
44F
100
AcDbEntity
  8
0
100
AcDbCircle
 10
0.0
 20
0.0
 30
0.0
 40
2.499999999999886
  0
ENDBLK
  5
457
330
44F
100
AcDbEntity
  8
0
100
AcDbBlockEnd
  0
BLOCK
  5
ACC
330
AC7
100
AcDbEntity
  8
0
100
AcDbBlockBegin
  2
A$C1DD909C7
 70
     0
 10
0.0
 20
0.0
 30
0.0
  3
A$C1DD909C7
  1

  0
ARC
  5
AC8
330
AC7
100
AcDbEntity
  8
0
100
AcDbCircle
 10
0.7500008834413166
 20
0.7500008036549844
 30
0.0
 40
0.75
100
AcDbArc
 50
90.0
 51
270.0
  0
ARC
  5
AC9
330
AC7
100
AcDbEntity
  8
0
100
AcDbCircle
 10
0.7500008834413166
 20
0.7500008036549844
 30
0.0
 40
0.25
100
AcDbArc
 50
90.0
 51
270.0
  0
ENDBLK
  5
ACD
330
AC7
100
AcDbEntity
  8
0
100
AcDbBlockEnd
  0
BLOCK
  5
C2B
330
C27
100
AcDbEntity
  8
0
100
AcDbBlockBegin
  2
A$C10560E84
 70
     0
 10
0.0
 20
0.0
 30
0.0
  3
A$C10560E84
  1

  0
MTEXT
  5
C28
330
C27
100
AcDbEntity
  8
0
100
AcDbMText
 10
0.0
 20
9.062135205261256
 30
0.0
 40
3.398300173163079
 41
76.10606477621877
 71
     1
 72
     5
  1
4 комплекта разводки коллекторов ТП из МП26
 73
     1
 44
1.0
1001
ACAD
1000
MTEXTBEGIN
1070
    73
1070
     1
1070
    44
1040
1.0
1070
    74
1070
     0
1000
MTEXTEND
  0
ENDBLK
  5
C2C
330
C27
100
AcDbEntity
  8
0
100
AcDbBlockEnd
  0
BLOCK
  5
CCF
330
CCA
100
AcDbEntity
  8
0
100
AcDbBlockBegin
  2
A$C5B9E48EF
 70
     0
 10
0.0
 20
0.0
 30
0.0
  3
A$C5B9E48EF
  1

  0
LINE
  5
CCB
330
CCA
100
AcDbEntity
  8
0
100
AcDbLine
 10
0.0
 20
0.0
 30
0.0
 11
0.000000000001819
 21
-32.17083851377322
 31
0.0
  0
LINE
  5
CCC
330
CCA
100
AcDbEntity
  8
0
100
AcDbLine
 10
1.000000000001364
 20
-32.6693144470363
 30
0.0
 11
1.000000000001364
 21
0.0
 31
0.0
  0
ENDBLK
  5
CD0
330
CCA
100
AcDbEntity
  8
0
100
AcDbBlockEnd
  0
BLOCK
  5
154D
330
1542
100
AcDbEntity
  8
0
 48
0.5
100
AcDbBlockBegin
  2
A$C76EA186C
 70
     0
 10
0.0
 20
0.0
 30
0.0
  3
A$C76EA186C
  1

  0
LINE
  5
1543
330
1542
100
AcDbEntity
  8
0
100
AcDbLine
 10
-1.500000000000227
 20
-3.000000000000341
 30
0.0
 11
0.9999999999997726
 21
-3.000000000000341
 31
0.0
  0
LINE
  5
1544
330
1542
100
AcDbEntity
  8
0
100
AcDbLine
 10
-1.500000000000227
 20
1.999999999999658
 30
0.0
 11
0.9999999999997726
 21
1.999999999999658
 31
0.0
  0
LINE
  5
1545
330
1542
100
AcDbEntity
  8
0
100
AcDbLine
 10
0.9999999999997726
 20
-3.000000000000341
 30
0.0
 11
-1.500000000000227
 21
1.999999999999658
 31
0.0
  0
LINE
  5
1546
330
1542
100
AcDbEntity
  8
0
100
AcDbLine
 10
0.9999999999997726
 20
1.999999999999658
 30
0.0
 11
-1.500000000000227
 21
-3.000000000000341
 31
0.0
  0
LINE
  5
1547
330
1542
100
AcDbEntity
  8
0
100
AcDbLine
 10
-39.91914574981752
 20
-3.000000000000227
 30
0.0
 11
-37.41914574981752
 21
-3.000000000000227
 31
0.0
  0
LINE
  5
1548
330
1542
100
AcDbEntity
  8
0
100
AcDbLine
 10
-39.91914574981752
 20
1.999999999999772
 30
0.0
 11
-37.41914574981752
 21
1.999999999999772
 31
0.0
  0
LINE
  5
1549
330
1542
100
AcDbEntity
  8
0
100
AcDbLine
 10
-37.41914574981752
 20
-3.000000000000227
 30
0.0
 11
-39.91914574981752
 21
1.999999999999772
 31
0.0
  0
LINE
  5
154A
330
1542
100
AcDbEntity
  8
0
100
AcDbLine
 10
-37.41914574981752
 20
1.999999999999772
 30
0.0
 11
-39.91914574981752
 21
-3.000000000000227
 31
0.0
  0
ENDBLK
  5
154E
330
1542
100
AcDbEntity
  8
0
 48
0.5
100
AcDbBlockEnd
  0
BLOCK
  5
15E7
330
15E2
100
AcDbEntity
  8
0
 48
0.5
100
AcDbBlockBegin
  2
A$C09372794
 70
     0
 10
0.0
 20
0.0
 30
0.0
  3
A$C09372794
  1

  0
LWPOLYLINE
  5
15E3
330
15E2
100
AcDbEntity
  8
0
 48
0.5
100
AcDbPolyline
 90
        4
 70
     1
 43
0.0
 10
7.917846929372444
 20
5.585503393458111
 10
0.0
 20
5.585503393458111
 10
0.0
 20
0.0
 10
7.917846929372444
 20
0.0
  0
MTEXT
  5
15E4
330
15E2
100
AcDbEntity
  8
0
100
AcDbMText
 10
1.530893112232547
 20
4.447306918309664
 30
0.0
 40
3.398300173163079
 41
76.10606477621877
 71
     1
 72
     5
  1
ГБ
 73
     1
 44
1.0
1001
ACAD
1000
MTEXTBEGIN
1070
    73
1070
     1
1070
    44
1040
1.0
1070
    74
1070
     0
1000
MTEXTEND
  0
ENDBLK
  5
15E8
330
15E2
100
AcDbEntity
  8
0
 48
0.5
100
AcDbBlockEnd
  0
BLOCK
  5
163F
330
163B
100
AcDbEntity
  8
0
 48
0.5
100
AcDbBlockBegin
  2
A$C19B877B5
 70
     0
 10
0.0
 20
0.0
 30
0.0
  3
A$C19B877B5
  1

  0
ARC
  5
163C
330
163B
100
AcDbEntity
  8
0
100
AcDbCircle
 10
0.2749999998291059
 20
0.0000003050512305
 30
0.0
 40
0.275
100
AcDbArc
 50
90.0
 51
180.0
  0
ENDBLK
  5
1640
330
163B
100
AcDbEntity
  8
0
 48
0.5
100
AcDbBlockEnd
  0
BLOCK
  5
16ED
330
16EC
100
AcDbEntity
  8
0
100
AcDbBlockBegin
  2
_ArchTick
 70
     0
 10
0.0
 20
0.0
 30
0.0
  3
_ArchTick
  1

  0
LWPOLYLINE
  5
16EE
330
16EC
100
AcDbEntity
  8
0
  6
ByBlock
 62
     0
100
AcDbPolyline
 90
        2
 70
     0
 43
0.15
 10
-0.5
 20
-0.5
 10
0.5
 20
0.5
  0
ENDBLK
  5
16EF
330
16EC
100
AcDbEntity
  8
0
100
AcDbBlockEnd
  0
BLOCK
  5
1A70
330
1A67
100
AcDbEntity
  8
0
 48
0.5
100
AcDbBlockBegin
  2
A$C610A7A8C
 70
     0
 10
0.0
 20
0.0
 30
0.0
  3
A$C610A7A8C
  1

  0
LINE
  5
1A68
330
1A67
100
AcDbEntity
  8
0
100
AcDbLine
 10
1.000518750000082
 20
-1.924441919406831
 30
0.0
 11
-2.334543750000079
 21
-1.924441919406831
 31
0.0
  0
LINE
  5
1A69
330
1A67
100
AcDbEntity
  8
0
100
AcDbLine
 10
1.000518750000082
 20
-8.594566919406815
 30
0.0
 11
-2.334543750000079
 21
-8.594566919406815
 31
0.0
  0
HATCH
  5
1A6A
330
1A67
100
AcDbEntity
  8
0
  6
ByBlock
 48
0.5
100
AcDbHatch
 10
0.0
 20
0.0
 30
0.0
210
0.0
220
0.0
230
1.0
  2
ANGLE
 70
     0
 71
     1
 91
        4
 92
        7
 72
     1
 73
     1
 93
        3
 10
-0.4626779942959729
 20
-4.850835407998602
 42
0.236067977499757
 10
-0.871347005704024
 20
-4.850835407998715
 42
0.0
 10
-0.667012500000169
 20
-5.259504419406766
 42
0.0
 97
        3
330
1A6D
330
1A6B
330
1A6C
 92
        7
 72
     1
 73
     1
 93
        4
 10
-0.4626779942958592
 20
-4.850835407998602
 42
0.0
 10
-0.6670125000000553
 20
-5.259504419406994
 42
0.0
 10
-0.4626779942960866
 20
-5.668173430814931
 42
0.2840790438405211
 10
-0.2101066550968653
 20
-5.259504419406766
 42
0.2840790438404381
 97
        3
330
1A6C
330
1A6B
330
1A6D
 92
        7
 72
     1
 73
     1
 93
        4
 10
-0.8713470057041377
 20
-4.850835407998715
 42
0.2840790438403293
 10
-1.123918344903017
 20
-5.259504419406766
 42
0.2840790438403708
 10
-0.871347005704024
 20
-5.668173430814817
 42
0.0
 10
-0.6670125000000553
 20
-5.259504419406766
 42
0.0
 97
        3
330
1A6D
330
1A6C
330
1A6B
 92
        7
 72
     1
 73
     1
 93
        3
 10
-0.6670125000000553
 20
-5.259504419406766
 42
0.0
 10
-0.8713470057041377
 20
-5.668173430814817
 42
0.2360679774998304
 10
-0.4626779942959729
 20
-5.668173430814931
 42
0.0
 97
        3
330
1A6C
330
1A6D
330
1A6B
 75
     0
 76
     1
 52
0.0
 41
0.01
 77
     0
 78
     2
 53
0.0
 43
-637.6859080763487
 44
-809.4913209540665
 45
0.0
 46
0.06985
 79
     2
 49
0.0508
 49
-0.01905
 53
90.0
 43
-637.6859080763487
 44
-809.4913209540665
 45
-0.06985
 46
0.0
 79
     2
 49
0.0508
 49
-0.01905
 47
0.0139210760952694
 98
        4
 10
-0.6605245154929662
 20
-4.962549438437235
 10
-0.4375683721810902
 20
-5.199207358465628
 10
-0.9531549665194916
 20
-5.227049513180418
 10
-0.7023303311531209
 20
-5.519392532733263
1001
ACAD
1010
0.0
1020
0.0
1030
0.0
  0
LINE
  5
1A6B
102
{ACAD_REACTORS
330
1A6A
102
}
330
1A67
100
AcDbEntity
  8
0
100
AcDbLine
 10
-2.334543750000079
 20
-1.924441919406831
 30
0.0
 11
1.000518750000082
 21
-8.594566919406815
 31
0.0
  0
LINE
  5
1A6C
102
{ACAD_REACTORS
330
1A6A
102
}
330
1A67
100
AcDbEntity
  8
0
100
AcDbLine
 10
-2.334543750000079
 20
-8.594566919406815
 30
0.0
 11
1.000518750000082
 21
-1.924441919406831
 31
0.0
  0
CIRCLE
  5
1A6D
102
{ACAD_REACTORS
330
1A6A
102
}
330
1A67
100
AcDbEntity
  8
0
  6
ByBlock
 48
0.5
100
AcDbCircle
 10
-0.6670124999999416
 20
-5.259504419406766
 30
0.0
 40
0.4569058449030763
  0
ENDBLK
  5
1A71
330
1A67
100
AcDbEntity
  8
0
 48
0.5
100
AcDbBlockEnd
  0
BLOCK
  5
1D71
330
1D68
100
AcDbEntity
  8
0
 48
0.5
100
AcDbBlockBegin
  2
A$C13CF74D2
 70
     0
 10
0.0
 20
0.0
 30
0.0
  3
A$C13CF74D2
  1

  0
LINE
  5
1D69
330
1D68
100
AcDbEntity
  8
0
100
AcDbLine
 10
3.335062206781799
 20
6.670125274698762
 30
0.0
 11
-0.0000002932183634
 21
6.670125274698762
 31
0.0
  0
LINE
  5
1D6A
330
1D68
100
AcDbEntity
  8
0
100
AcDbLine
 10
3.335062206781799
 20
0.0000002746987775
 30
0.0
 11
-0.0000002932183634
 21
0.0000002746987775
 31
0.0
  0
HATCH
  5
1D6B
330
1D68
100
AcDbEntity
  8
0
  6
ByBlock
 48
0.5
100
AcDbHatch
 10
0.0
 20
0.0
 30
0.0
210
0.0
220
0.0
230
1.0
  2
ANGLE
 70
     0
 71
     1
 91
        4
 92
        7
 72
     1
 73
     1
 93
        3
 10
1.871865462485857
 20
3.743731786106877
 42
0.2360679774998304
 10
1.463196451077692
 20
3.743731786106877
 42
0.0
 10
1.667530956781774
 20
3.335062774698599
 42
0.0
 97
        3
330
1D6E
330
1D6C
330
1D6D
 92
        7
 72
     1
 73
     1
 93
        4
 10
1.667530956781774
 20
3.335062774698599
 42
0.0
 10
1.871865462485743
 20
2.926393763290661
 42
0.2840790438404796
 10
2.124436801684851
 20
3.335062774698826
 42
0.2840790438404381
 10
1.871865462485857
 20
3.743731786106991
 42
0.0
 97
        3
330
1D6D
330
1D6C
330
1D6E
 92
        7
 72
     1
 73
     1
 93
        4
 10
1.210625111878698
 20
3.335062774698826
 42
0.2840790438403708
 10
1.463196451077692
 20
2.926393763290775
 42
0.0
 10
1.667530956781661
 20
3.335062774698826
 42
0.0
 10
1.463196451077578
 20
3.743731786106877
 42
0.2840790438403293
 97
        3
330
1D6E
330
1D6D
330
1D6C
 92
        7
 72
     1
 73
     1
 93
        3
 10
1.463196451077692
 20
2.926393763290775
 42
0.236067977499757
 10
1.871865462485743
 20
2.926393763290661
 42
0.0
 10
1.667530956781774
 20
3.335062774698599
 42
0.0
 97
        3
330
1D6D
330
1D6E
330
1D6C
 75
     0
 76
     1
 52
0.0
 41
0.01
 77
     0
 78
     2
 53
0.0
 43
-635.3513646195669
 44
-800.8967537599611
 45
0.0
 46
0.06985
 79
     2
 49
0.0508
 49
-0.01905
 53
90.0
 43
-635.3513646195669
 44
-800.8967537599611
 45
-0.06985
 46
0.0
 79
     2
 49
0.0508
 49
-0.01905
 47
0.0139210760952694
 98
        4
 10
1.67401894128875
 20
3.632017755668357
 10
1.896975084600626
 20
3.395359835639965
 10
1.381388490262224
 20
3.367517680925175
 10
1.632213125628595
 20
3.075174661372329
1001
ACAD
1010
0.0
1020
0.0
1030
0.0
  0
LINE
  5
1D6C
102
{ACAD_REACTORS
330
1D6B
102
}
330
1D68
100
AcDbEntity
  8
0
100
AcDbLine
 10
-0.0000002932183634
 20
6.670125274698762
 30
0.0
 11
3.335062206781799
 21
0.0000002746987775
 31
0.0
  0
LINE
  5
1D6D
102
{ACAD_REACTORS
330
1D6B
102
}
330
1D68
100
AcDbEntity
  8
0
100
AcDbLine
 10
-0.0000002932183634
 20
0.0000002746987775
 30
0.0
 11
3.335062206781799
 21
6.670125274698762
 31
0.0
  0
CIRCLE
  5
1D6E
102
{ACAD_REACTORS
330
1D6B
102
}
330
1D68
100
AcDbEntity
  8
0
  6
ByBlock
 48
0.5
100
AcDbCircle
 10
1.667530956781774
 20
3.335062774698826
 30
0.0
 40
0.4569058449030763
  0
ENDBLK
  5
1D72
330
1D68
100
AcDbEntity
  8
0
 48
0.5
100
AcDbBlockEnd
  0
BLOCK
  5
289B
330
2896
100
AcDbEntity
  8
0
 48
0.5
100
AcDbBlockBegin
  2
A$C68F621CA
 70
     0
 10
0.0
 20
0.0
 30
0.0
  3
A$C68F621CA
  1

  0
MTEXT
  5
2897
102
{ACAD_XDICTIONARY
360
3538
102
}
330
2896
100
AcDbEntity
  8
0
100
AcDbMText
 10
47.57713845839657
 20
56.05401923538159
 30
0.0
 40
3.3
 41
135.250732479757
 71
     1
 72
     5
  3
\U+0416\U+0438\U+043B\U+043E\U+0439 \U+0434\U+043E\U+043C 4-\U+0443\U+0440\U+043E\U+0432\U+043D\U+0435\U+0432\U+044B\U+0439\P\U+0426\U+043E\U+043A\U+043E\U+043B\U+044C(7\U+043F\U+0435\U+0442\U+0435\U+043B\U+044C) - \U+043A\U+043E\U+0442\U+0435\U+043B
  3
\U+044C\U+043D\U+0430\U+044F - 7.5\U+043A\U+0432.\U+043C;\P                 \U+043E\U+0442\U+0430\U+043F\U+043B.\U+0433\U+0430\U+0440\U+0430\U+0436 \U+043D\U+0430 2 \U+0430/\U+043C\U+043E\U+0431. - 38\U+043A\U+0432.\U+043C;\P                 \U+0431\
  3
U+0438\U+043B\U+044C\U+044F\U+0440\U+0434\U+043D\U+0430\U+044F+\U+0446\U+0432\U+0435\U+0442\U+043E\U+0447\U+043D\U+0430\U+044F - 55\U+043A\U+0432.\U+043C;\P1-\U+044B\U+0439 \U+044D\U+0442\U+0430\U+0436(6 \U+043F\U+0435\U+0442\U+0435\U+043B\U+044C) - 
  3
\U+0441/\U+0443 - 4,5\U+043A\U+0432.\U+043C;\P                 \U+043A\U+0443\U+0445\U+043D\U+044F,\U+0441\U+0442\U+043E\U+043B.,\U+0433\U+043E\U+0441\U+0442\U+0438\U+043D\U+0430\U+044F(\U+0432\U+0441\U+0451 \U+0432 \U+043E\U+0434\U+043D\U+043E\U+043
  3
C \U+043E\U+0431\U+044C\U+0451\U+043C\U+0435) - 95\U+043A\U+0432.\U+043C;\P2-\U+043E\U+0439 \U+044D\U+0442\U+0430\U+0436(6 \U+043F\U+0435\U+0442\U+0435\U+043B\U+044C) - 2\U+0441/\U+0443 - 9+4\U+043A\U+0432.\U+043C;\P                 3 \U+0441\U+043F\
  3
U+0430\U+043B\U+044C\U+043D\U+0438,\U+043A\U+0430\U+0431\U+0438\U+043D\U+0435\U+0442 - 87\U+043A\U+0432.\U+043C;\P\U+041C\U+0430\U+043D\U+0441\U+0430\U+0440\U+0434\U+0430(4 \U+043F\U+0435\U+0442\U+043B\U+0438) - \U+0441/\U+0443 - 3,5\U+043A\U+0432.\U
  1
+043C;\P                 \U+0436\U+0438\U+043B\U+043E\U+0435 \U+043F\U+043E\U+043C\U+0435\U+0449.(\U+0441\U+044B\U+043D) - 45\U+043A\U+0432.\U+043C 
  7
style1
 73
     1
 44
1.0
1001
ACAD
1000
MTEXTBEGIN
1070
    73
1070
     1
1070
    44
1040
1.0
1070
    74
1070
     0
1000
MTEXTEND
1000
ACAD_MTEXT_DEFINED_HEIGHT_BEGIN
1070
    46
1040
1.788507355375425E+99
1000
ACAD_MTEXT_DEFINED_HEIGHT_END
  0
MTEXT
  5
2898
102
{ACAD_XDICTIONARY
360
353A
102
}
330
2896
100
AcDbEntity
  8
0
100
AcDbMText
 10
0.1784535424377509
 20
23.77629412174417
 30
0.0
 40
3.3
 41
0.0
 71
     1
 72
     5
  1
\U+0425\U+0412\U+0421
  7
style1
 73
     1
 44
1.0
1001
ACAD
1000
MTEXTBEGIN
1070
    73
1070
     1
1070
    44
1040
1.0
1070
    74
1070
     0
1000
MTEXTEND
1000
ACAD_MTEXT_DEFINED_HEIGHT_BEGIN
1070
    46
1040
1.788507355375425E+99
1000
ACAD_MTEXT_DEFINED_HEIGHT_END
  0
ENDBLK
  5
289C
330
2896
100
AcDbEntity
  8
0
 48
0.5
100
AcDbBlockEnd
  0
BLOCK
  5
2D87
330
2D83
100
AcDbEntity
  8
0
 48
0.5
100
AcDbBlockBegin
  2
A$C19993E8B
 70
     0
 10
0.0
 20
0.0
 30
0.0
  3
A$C19993E8B
  1

  0
LINE
  5
2D84
330
2D83
100
AcDbEntity
  8
0
  6
ByBlock
 48
0.5
100
AcDbLine
 10
0.0
 20
0.0
 30
0.0
 11
0.0
 21
-430.9751908605104
 31
0.0
  0
ENDBLK
  5
2D88
330
2D83
100
AcDbEntity
  8
0
 48
0.5
100
AcDbBlockEnd
  0
BLOCK
  5
325C
330
325B
100
AcDbEntity
  8
0
 48
4.0
100
AcDbBlockBegin
  2
*D17
 70
     1
 10
0.0
 20
0.0
 30
0.0
  3
*D17
  1

  0
LINE
  5
33F2
330
325B
100
AcDbEntity
  8
0
  6
ByBlock
 62
     0
 48
4.0
370
    -2
100
AcDbLine
 10
1927.684156668212
 20
1143.261868933333
 30
0.0
 11
1927.684156668212
 21
985.3253577792797
 31
0.0
  0
LINE
  5
33F3
330
325B
100
AcDbEntity
  8
0
  6
ByBlock
 62
     0
 48
4.0
370
    -2
100
AcDbLine
 10
2377.684156668212
 20
1143.261868933333
 30
0.0
 11
2377.684156668212
 21
985.3253577792797
 31
0.0
  0
LINE
  5
33F4
330
325B
100
AcDbEntity
  8
0
  6
ByBlock
 62
     0
 48
4.0
370
    -2
100
AcDbLine
 10
1957.684156668212
 20
986.5753577792798
 30
0.0
 11
2347.684156668213
 21
986.5753577792798
 31
0.0
  0
SOLID
  5
33F5
330
325B
100
AcDbEntity
  8
0
  6
ByBlock
 62
     0
 48
4.0
100
AcDbTrace
 10
1957.684156668212
 20
991.5753577792797
 30
0.0
 11
1957.684156668212
 21
981.5753577792797
 31
0.0
 12
1927.684156668212
 22
986.5753577792798
 32
0.0
 13
1927.684156668212
 23
986.5753577792798
 33
0.0
  0
SOLID
  5
33F6
330
325B
100
AcDbEntity
  8
0
  6
ByBlock
 62
     0
 48
4.0
100
AcDbTrace
 10
2347.684156668213
 20
991.5753577792797
 30
0.0
 11
2347.684156668213
 21
981.5753577792797
 31
0.0
 12
2377.684156668212
 22
986.5753577792798
 32
0.0
 13
2377.684156668212
 23
986.5753577792798
 33
0.0
  0
MTEXT
  5
33F7
330
325B
100
AcDbEntity
  8
0
  6
ByBlock
 62
     0
 48
4.0
100
AcDbMText
 10
2152.684156668212
 20
1007.20035777928
 30
0.0
 40
40.0
 41
0.0
 71
     5
 72
     1
  1
450
 73
     1
 44
1.0
1001
ACAD
1000
MTEXTBEGIN
1070
    73
1070
     1
1070
    44
1040
1.0
1070
    74
1070
     0
1000
MTEXTEND
  0
POINT
  5
33F8
330
325B
100
AcDbEntity
  8
Defpoints
  6
ByBlock
 62
     0
 48
4.0
100
AcDbPoint
 10
1927.684156668212
 20
1143.886868933333
 30
0.0
  0
POINT
  5
33F9
330
325B
100
AcDbEntity
  8
Defpoints
  6
ByBlock
 62
     0
 48
4.0
100
AcDbPoint
 10
2377.684156668212
 20
1143.886868933333
 30
0.0
  0
POINT
  5
33FA
330
325B
100
AcDbEntity
  8
Defpoints
  6
ByBlock
 62
     0
 48
4.0
100
AcDbPoint
 10
2377.684156668212
 20
986.5753577792798
 30
0.0
  0
ENDBLK
  5
325D
330
325B
100
AcDbEntity
  8
0
 48
4.0
100
AcDbBlockEnd
  0
BLOCK
  5
3274
330
3273
100
AcDbEntity
  8
0
 48
4.0
100
AcDbBlockBegin
  2
*D18
 70
     1
 10
0.0
 20
0.0
 30
0.0
  3
*D18
  1

  0
LINE
  5
33E9
330
3273
100
AcDbEntity
  8
0
  6
ByBlock
 62
     0
 48
4.0
370
    -2
100
AcDbLine
 10
1927.059156668212
 20
1143.261868933333
 30
0.0
 11
1806.427084438693
 21
1143.261868933333
 31
0.0
  0
LINE
  5
33EA
330
3273
100
AcDbEntity
  8
0
  6
ByBlock
 62
     0
 48
4.0
370
    -2
100
AcDbLine
 10
1927.059156668212
 20
1573.886868933333
 30
0.0
 11
1806.427084438694
 21
1573.886868933333
 31
0.0
  0
LINE
  5
33EB
330
3273
100
AcDbEntity
  8
0
  6
ByBlock
 62
     0
 48
4.0
370
    -2
100
AcDbLine
 10
1807.677084438693
 20
1173.261868933333
 30
0.0
 11
1807.677084438694
 21
1543.886868933333
 31
0.0
  0
SOLID
  5
33EC
330
3273
100
AcDbEntity
  8
0
  6
ByBlock
 62
     0
 48
4.0
100
AcDbTrace
 10
1802.677084438693
 20
1173.261868933333
 30
0.0
 11
1812.677084438693
 21
1173.261868933333
 31
0.0
 12
1807.677084438693
 22
1143.261868933333
 32
0.0
 13
1807.677084438693
 23
1143.261868933333
 33
0.0
  0
SOLID
  5
33ED
330
3273
100
AcDbEntity
  8
0
  6
ByBlock
 62
     0
 48
4.0
100
AcDbTrace
 10
1802.677084438694
 20
1543.886868933333
 30
0.0
 11
1812.677084438694
 21
1543.886868933333
 31
0.0
 12
1807.677084438694
 22
1573.886868933333
 32
0.0
 13
1807.677084438694
 23
1573.886868933333
 33
0.0
  0
MTEXT
  5
33EE
330
3273
100
AcDbEntity
  8
0
  6
ByBlock
 62
     0
 48
4.0
100
AcDbMText
 10
1787.052084438693
 20
1358.574368933333
 30
0.0
 40
40.0
 41
0.0
 71
     5
 72
     1
  1
430
 11
0.0000000000000001
 21
1.0
 31
0.0
 73
     1
 44
1.0
1001
ACAD
1000
MTEXTBEGIN
1070
    73
1070
     1
1070
    44
1040
1.0
1070
    74
1070
     0
1000
MTEXTEND
  0
POINT
  5
33EF
330
3273
100
AcDbEntity
  8
Defpoints
  6
ByBlock
 62
     0
 48
4.0
100
AcDbPoint
 10
1927.684156668212
 20
1143.261868933333
 30
0.0
  0
POINT
  5
33F0
330
3273
100
AcDbEntity
  8
Defpoints
  6
ByBlock
 62
     0
 48
4.0
100
AcDbPoint
 10
1927.684156668212
 20
1573.886868933333
 30
0.0
  0
POINT
  5
33F1
330
3273
100
AcDbEntity
  8
Defpoints
  6
ByBlock
 62
     0
 48
4.0
100
AcDbPoint
 10
1807.677084438694
 20
1573.886868933333
 30
0.0
  0
ENDBLK
  5
3275
330
3273
100
AcDbEntity
  8
0
 48
4.0
100
AcDbBlockEnd
  0
BLOCK
  5
32BC
330
32BB
100
AcDbEntity
  8
0
 48
4.0
100
AcDbBlockBegin
  2
*D19
 70
     1
 10
0.0
 20
0.0
 30
0.0
  3
*D19
  1

  0
LINE
  5
33DD
330
32BB
100
AcDbEntity
  8
0
  6
ByBlock
 62
     0
 48
4.0
370
    -2
100
AcDbLine
 10
1738.58253045395
 20
808.415239064927
 30
0.0
 11
1615.111782953621
 21
746.966223969854
 31
0.0
  0
MTEXT
  5
33DE
330
32BB
100
AcDbEntity
  8
0
  6
ByBlock
 62
     0
 48
4.0
100
AcDbMText
 10
1681.086494053652
 20
802.8386666977194
 30
0.0
 40
40.0
 41
0.0
 71
     5
 72
     1
  1
R25
 11
0.8952561752289696
 21
0.4455517710821006
 31
0.0
 73
     1
 44
1.0
1001
ACAD
1000
MTEXTBEGIN
1070
    73
1070
     1
1070
    44
1040
1.0
1070
    74
1070
     0
1000
MTEXTEND
  0
LINE
  5
33DF
330
32BB
100
AcDbEntity
  8
0
  6
ByBlock
 62
     0
 48
4.0
370
    -2
100
AcDbLine
 10
1565.872693316026
 20
722.4608765603375
 30
0.0
 11
1588.254097696752
 21
733.599670837391
 31
0.0
  0
SOLID
  5
33E0
330
32BB
100
AcDbEntity
  8
0
  6
ByBlock
 62
     0
 48
4.0
100
AcDbTrace
 10
1612.884024098211
 20
751.4425048459989
 30
0.0
 11
1617.339541809032
 21
742.4899430937091
 31
0.0
 12
1588.254097696752
 22
733.599670837391
 32
0.0
 13
1588.254097696752
 23
733.599670837391
 33
0.0
  0
POINT
  5
33E1
330
32BB
100
AcDbEntity
  8
Defpoints
  6
ByBlock
 62
     0
 48
4.0
100
AcDbPoint
 10
1588.254097696752
 20
733.599670837391
 30
0.0
  0
POINT
  5
33E2
330
32BB
100
AcDbEntity
  8
Defpoints
  6
ByBlock
 62
     0
 48
4.0
100
AcDbPoint
 10
1565.872693316026
 20
722.4608765603375
 30
0.0
  0
ENDBLK
  5
32BD
330
32BB
100
AcDbEntity
  8
0
 48
4.0
100
AcDbBlockEnd
  0
BLOCK
  5
32CE
330
32CD
100
AcDbEntity
  8
0
 48
4.0
100
AcDbBlockBegin
  2
*D20
 70
     1
 10
0.0
 20
0.0
 30
0.0
  3
*D20
  1

  0
LINE
  5
33E3
330
32CD
100
AcDbEntity
  8
0
  6
ByBlock
 62
     0
 48
4.0
370
    -2
100
AcDbLine
 10
1442.59152917741
 20
838.9094124595557
 30
0.0
 11
1533.159264011433
 21
753.3612251527601
 31
0.0
  0
MTEXT
  5
33E4
330
32CD
100
AcDbEntity
  8
0
  6
ByBlock
 62
     0
 48
4.0
100
AcDbMText
 10
1491.133579931082
 20
821.4290901015717
 30
0.0
 40
40.0
 41
0.0
 71
     5
 72
     1
  1
R15
 11
0.7269650956577075
 21
-0.6866744131649149
 31
0.0
 73
     1
 44
1.0
1001
ACAD
1000
MTEXTBEGIN
1070
    73
1070
     1
1070
    44
1040
1.0
1070
    74
1070
     0
1000
MTEXTEND
  0
LINE
  5
33E5
330
32CD
100
AcDbEntity
  8
0
  6
ByBlock
 62
     0
 48
4.0
370
    -2
100
AcDbLine
 10
1565.872693316028
 20
722.4608765603402
 30
0.0
 11
1554.968216881164
 21
732.7609927578126
 31
0.0
  0
SOLID
  5
33E6
330
32CD
100
AcDbEntity
  8
0
  6
ByBlock
 62
     0
 48
4.0
100
AcDbTrace
 10
1536.592636077257
 20
756.9960506310484
 30
0.0
 11
1529.725891945608
 21
749.7263996744715
 31
0.0
 12
1554.968216881164
 22
732.7609927578126
 32
0.0
 13
1554.968216881164
 23
732.7609927578126
 33
0.0
  0
POINT
  5
33E7
330
32CD
100
AcDbEntity
  8
Defpoints
  6
ByBlock
 62
     0
 48
4.0
100
AcDbPoint
 10
1554.968216881164
 20
732.7609927578126
 30
0.0
  0
POINT
  5
33E8
330
32CD
100
AcDbEntity
  8
Defpoints
  6
ByBlock
 62
     0
 48
4.0
100
AcDbPoint
 10
1565.872693316028
 20
722.4608765603402
 30
0.0
  0
ENDBLK
  5
32CF
330
32CD
100
AcDbEntity
  8
0
 48
4.0
100
AcDbBlockEnd
  0
BLOCK
  5
32E0
330
32DF
100
AcDbEntity
  8
0
 48
4.0
100
AcDbBlockBegin
  2
*D21
 70
     1
 10
0.0
 20
0.0
 30
0.0
  3
*D21
  1

  0
LINE
  5
33D7
330
32DF
100
AcDbEntity
  8
0
  6
ByBlock
 62
     0
 48
4.0
370
    -2
100
AcDbLine
 10
2448.131861870884
 20
458.6261758319897
 30
0.0
 11
2362.106436247813
 21
368.5116204548808
 31
0.0
  0
MTEXT
  5
33D8
330
32DF
100
AcDbEntity
  8
0
  6
ByBlock
 62
     0
 48
4.0
100
AcDbMText
 10
2400.558094983307
 20
438.660478618077
 30
0.0
 40
40.0
 41
0.0
 71
     5
 72
     1
  1
R15
 11
0.6905050886132759
 21
0.7233275347995347
 31
0.0
 73
     1
 44
1.0
1001
ACAD
1000
MTEXTBEGIN
1070
    73
1070
     1
1070
    44
1040
1.0
1070
    74
1070
     0
1000
MTEXTEND
  0
LINE
  5
33D9
330
32DF
100
AcDbEntity
  8
0
  6
ByBlock
 62
     0
 48
4.0
370
    -2
100
AcDbLine
 10
2331.033707260216
 20
335.9618813889028
 30
0.0
 11
2341.391283589414
 21
346.8117944108949
 31
0.0
  0
SOLID
  5
33DA
330
32DF
100
AcDbEntity
  8
0
  6
ByBlock
 62
     0
 48
4.0
100
AcDbTrace
 10
2358.489798573815
 20
371.9641458979472
 30
0.0
 11
2365.72307392181
 21
365.0590950118144
 31
0.0
 12
2341.391283589414
 22
346.8117944108949
 32
0.0
 13
2341.391283589414
 23
346.8117944108949
 33
0.0
  0
POINT
  5
33DB
330
32DF
100
AcDbEntity
  8
Defpoints
  6
ByBlock
 62
     0
 48
4.0
100
AcDbPoint
 10
2341.391283589414
 20
346.8117944108949
 30
0.0
  0
POINT
  5
33DC
330
32DF
100
AcDbEntity
  8
Defpoints
  6
ByBlock
 62
     0
 48
4.0
100
AcDbPoint
 10
2331.033707260216
 20
335.9618813889028
 30
0.0
  0
ENDBLK
  5
32E1
330
32DF
100
AcDbEntity
  8
0
 48
4.0
100
AcDbBlockEnd
  0
BLOCK
  5
3375
330
336E
100
AcDbEntity
  8
0
 48
4.0
100
AcDbBlockBegin
  2
A$C37C51527
 70
     0
 10
0.0
 20
0.0
 30
0.0
  3
A$C37C51527
  1

  0
LINE
  5
336F
330
336E
100
AcDbEntity
  8
0
  6
ByBlock
 62
     6
 48
4.0
100
AcDbLine
 10
0.0
 20
-0.0000000000009095
 30
0.0
 11
-87.3833648919499
 21
-31.73129442847267
 31
0.0
  0
LINE
  5
3370
330
336E
100
AcDbEntity
  8
0
  6
ByBlock
 62
     6
 48
4.0
100
AcDbLine
 10
-87.3833648919499
 20
-31.73129442847267
 30
0.0
 11
-78.91006444544018
 21
-46.4276797838761
 31
0.0
  0
LINE
  5
3371
330
336E
100
AcDbEntity
  8
0
  6
ByBlock
 62
     6
 48
4.0
100
AcDbLine
 10
0.0
 20
0.0
 30
0.0
 11
-71.242953115403
 21
-59.725782852488
 31
0.0
  0
LINE
  5
3372
330
336E
100
AcDbEntity
  8
0
  6
ByBlock
 62
     6
 48
4.0
100
AcDbLine
 10
-71.242953115403
 20
-59.725782852488
 30
0.0
 11
-79.71625356191271
 21
-45.02939749708412
 31
0.0
  0
ENDBLK
  5
3376
330
336E
100
AcDbEntity
  8
0
 48
4.0
100
AcDbBlockEnd
  0
ENDSEC
  0
SECTION
  2
ENTITIES
  0
MTEXT
  5
257E
102
{ACAD_XDICTIONARY
360
3536
102
}
330
1F
100
AcDbEntity
  8
0
100
AcDbMText
 10
3482.987324963416
 20
1273.323838514859
 30
0.0
 40
50.0
 41
0.0
 71
     1
 72
     5
  1
\U+0411\U+043E\U+0439\U+043B\U+0435\U+0440 ACV-210E 
  7
style1
 73
     1
 44
1.0
1001
ACAD
1000
MTEXTBEGIN
1070
    73
1070
     1
1070
    44
1040
1.0
1070
    74
1070
     0
1000
MTEXTEND
1000
ACAD_MTEXT_DEFINED_HEIGHT_BEGIN
1070
    46
1040
1.788507355375425E+99
1000
ACAD_MTEXT_DEFINED_HEIGHT_END
  0
LINE
  5
2CA6
330
1F
100
AcDbEntity
  8
0
  6
ByBlock
 48
0.5
370
    20
100
AcDbLine
 10
1916.033707260214
 20
300.9618813889028
 30
0.0
 11
2366.033707260214
 21
300.9618813889028
 31
0.0
  0
LINE
  5
2CA7
330
1F
100
AcDbEntity
  8
0
  6
ByBlock
 48
0.5
370
    20
100
AcDbLine
 10
1916.033707260214
 20
350.9618813889028
 30
0.0
 11
2366.033707260213
 21
350.9618813889033
 31
0.0
  0
CIRCLE
  5
2CAA
330
1F
100
AcDbEntity
  8
0
  6
ByBlock
 48
0.5
370
    20
100
AcDbCircle
 10
1941.033707260214
 20
315.9618813889029
 30
0.0
 40
15.0
  0
LINE
  5
2CAB
330
1F
100
AcDbEntity
  8
0
  6
ByBlock
 48
0.5
370
    20
100
AcDbLine
 10
1916.033707260214
 20
350.9618813889028
 30
0.0
 11
1916.033707260214
 21
300.9618813889028
 31
0.0
  0
LINE
  5
2CAC
330
1F
100
AcDbEntity
  8
0
  6
ByBlock
 48
0.5
370
    20
100
AcDbLine
 10
2366.033707260214
 20
350.9618813889028
 30
0.0
 11
2366.033707260214
 21
300.9618813889028
 31
0.0
  0
CIRCLE
  5
2CB7
330
1F
100
AcDbEntity
  8
0
  6
ByBlock
 48
0.5
370
    20
100
AcDbCircle
 10
2331.033707260214
 20
335.9618813889033
 30
0.0
 40
15.0
  0
CIRCLE
  5
2D12
330
1F
100
AcDbEntity
  8
0
  6
ByBlock
 48
0.5
370
    20
100
AcDbCircle
 10
1996.783707260213
 20
335.9618813889028
 30
0.0
 40
15.0
  0
CIRCLE
  5
2D1E
330
1F
100
AcDbEntity
  8
0
  6
ByBlock
 48
0.5
370
    20
100
AcDbCircle
 10
2052.533707260214
 20
315.9618813889033
 30
0.0
 40
15.0
  0
CIRCLE
  5
2D20
330
1F
100
AcDbEntity
  8
0
  6
ByBlock
 48
0.5
370
    20
100
AcDbCircle
 10
2108.283707260214
 20
335.9618813889028
 30
0.0
 40
15.0
  0
CIRCLE
  5
2D29
330
1F
100
AcDbEntity
  8
0
  6
ByBlock
 48
0.5
370
    20
100
AcDbCircle
 10
2164.033707260214
 20
315.9618813889029
 30
0.0
 40
15.0
  0
CIRCLE
  5
2D2A
330
1F
100
AcDbEntity
  8
0
  6
ByBlock
 48
0.5
370
    20
100
AcDbCircle
 10
2219.783707260214
 20
335.9618813889033
 30
0.0
 40
15.0
  0
CIRCLE
  5
2D32
330
1F
100
AcDbEntity
  8
0
  6
ByBlock
 48
0.5
370
    20
100
AcDbCircle
 10
2275.533707260214
 20
315.9618813889029
 30
0.0
 40
15.0
  0
LINE
  5
2D33
330
1F
100
AcDbEntity
  8
0
  6
ByBlock
 48
0.5
370
    20
100
AcDbLine
 10
2366.033707260214
 20
310.9618813889033
 30
0.0
 11
2823.973486029604
 21
310.9618813889028
 31
0.0
  0
LINE
  5
2D34
330
1F
100
AcDbEntity
  8
0
  6
ByBlock
 48
0.5
370
    20
100
AcDbLine
 10
2366.033707260214
 20
340.9618813889033
 30
0.0
 11
2823.973486029603
 21
340.9618813889029
 31
0.0
  0
LINE
  5
2E09
330
1F
100
AcDbEntity
  8
0
  6
ByBlock
 48
0.5
370
    20
100
AcDbLine
 10
1927.684156668212
 20
1143.886868933333
 30
0.0
 11
2377.684156668212
 21
1143.886868933333
 31
0.0
  0
LINE
  5
2E0A
330
1F
100
AcDbEntity
  8
0
  6
ByBlock
 48
0.5
370
    20
100
AcDbLine
 10
1927.684156668212
 20
1193.886868933333
 30
0.0
 11
1937.684156668212
 21
1193.886868933333
 31
0.0
  0
LINE
  5
2E0B
330
1F
100
AcDbEntity
  8
0
  6
ByBlock
 48
0.5
370
    20
100
AcDbLine
 10
1967.684156668212
 20
1193.886868933333
 30
0.0
 11
1993.434156668212
 21
1193.886868933333
 31
0.0
  0
LINE
  5
2E0C
330
1F
100
AcDbEntity
  8
0
  6
ByBlock
 48
0.5
370
    20
100
AcDbLine
 10
2023.434156668213
 20
1193.886868933333
 30
0.0
 11
2049.184156668212
 21
1193.886868933333
 31
0.0
  0
LINE
  5
2E0D
330
1F
100
AcDbEntity
  8
0
  6
ByBlock
 48
0.5
370
    20
100
AcDbLine
 10
2079.184156668212
 20
1193.886868933333
 30
0.0
 11
2104.934156668212
 21
1193.886868933333
 31
0.0
  0
LINE
  5
2E0E
330
1F
100
AcDbEntity
  8
0
  6
ByBlock
 48
0.5
370
    20
100
AcDbLine
 10
2134.934156668212
 20
1193.886868933333
 30
0.0
 11
2160.684156668212
 21
1193.886868933333
 31
0.0
  0
LINE
  5
2E0F
330
1F
100
AcDbEntity
  8
0
  6
ByBlock
 48
0.5
370
    20
100
AcDbLine
 10
2190.684156668213
 20
1193.886868933333
 30
0.0
 11
2216.434156668212
 21
1193.886868933333
 31
0.0
  0
LINE
  5
2E10
330
1F
100
AcDbEntity
  8
0
  6
ByBlock
 48
0.5
370
    20
100
AcDbLine
 10
2246.434156668212
 20
1193.886868933333
 30
0.0
 11
2272.184156668212
 21
1193.886868933333
 31
0.0
  0
LINE
  5
2E11
330
1F
100
AcDbEntity
  8
0
  6
ByBlock
 48
0.5
370
    20
100
AcDbLine
 10
2302.184156668212
 20
1193.886868933333
 30
0.0
 11
2327.684156668212
 21
1193.886868933333
 31
0.0
  0
LINE
  5
2E12
330
1F
100
AcDbEntity
  8
0
  6
ByBlock
 48
0.5
370
    20
100
AcDbLine
 10
2357.684156668212
 20
1193.886868933333
 30
0.0
 11
2377.684156668212
 21
1193.886868933333
 31
0.0
  0
LINE
  5
2E13
330
1F
100
AcDbEntity
  8
0
  6
ByBlock
 48
0.5
370
    20
100
AcDbLine
 10
2377.684156668212
 20
1183.886868933333
 30
0.0
 11
3221.914591074774
 21
1183.886868933333
 31
0.0
  0
LINE
  5
2E14
330
1F
100
AcDbEntity
  8
0
  6
ByBlock
 48
0.5
370
    20
100
AcDbLine
 10
1927.684156668212
 20
1143.886868933333
 30
0.0
 11
2377.684156668212
 21
1143.886868933333
 31
0.0
  0
LINE
  5
2E15
330
1F
100
AcDbEntity
  8
0
  6
ByBlock
 48
0.5
370
    20
100
AcDbLine
 10
2377.684156668212
 20
1153.886868933333
 30
0.0
 11
3221.914591074774
 21
1153.886868933333
 31
0.0
  0
LINE
  5
2E16
102
{ACAD_REACTORS
330
3271
102
}
330
1F
100
AcDbEntity
  8
0
  6
ByBlock
 48
0.5
370
    20
100
AcDbLine
 10
1927.684156668212
 20
1143.886868933333
 30
0.0
 11
1927.684156668212
 21
1193.886868933333
 31
0.0
  0
LINE
  5
2E17
102
{ACAD_REACTORS
330
3271
102
}
330
1F
100
AcDbEntity
  8
0
  6
ByBlock
 48
0.5
370
    20
100
AcDbLine
 10
2377.684156668212
 20
1143.886868933333
 30
0.0
 11
2377.684156668212
 21
1193.886868933333
 31
0.0
  0
LINE
  5
2E19
330
1F
100
AcDbEntity
  8
0
  6
ByBlock
 48
0.5
370
    20
100
AcDbLine
 10
1937.684156668212
 20
1193.886868933333
 30
0.0
 11
1937.684156668212
 21
1358.886868933333
 31
0.0
  0
LINE
  5
2E1A
330
1F
100
AcDbEntity
  8
0
  6
ByBlock
 48
0.5
370
    20
100
AcDbLine
 10
1967.684156668212
 20
1193.886868933333
 30
0.0
 11
1967.684156668213
 21
1358.886868933333
 31
0.0
  0
LINE
  5
2E1B
330
1F
100
AcDbEntity
  8
0
  6
ByBlock
 48
0.5
370
    20
100
AcDbLine
 10
1993.434156668212
 20
1193.886868933333
 30
0.0
 11
1993.434156668212
 21
1358.886868933333
 31
0.0
  0
LINE
  5
2E1C
330
1F
100
AcDbEntity
  8
0
  6
ByBlock
 48
0.5
370
    20
100
AcDbLine
 10
2023.434156668213
 20
1193.886868933327
 30
0.0
 11
2023.434156668213
 21
1358.886868933333
 31
0.0
  0
LINE
  5
2E1D
330
1F
100
AcDbEntity
  8
0
  6
ByBlock
 48
0.5
370
    20
100
AcDbLine
 10
2049.184156668212
 20
1193.886868933334
 30
0.0
 11
2049.184156668212
 21
1358.886868933333
 31
0.0
  0
LINE
  5
2E1E
330
1F
100
AcDbEntity
  8
0
  6
ByBlock
 48
0.5
370
    20
100
AcDbLine
 10
2079.184156668212
 20
1193.886868933333
 30
0.0
 11
2079.184156668212
 21
1358.886868933333
 31
0.0
  0
LINE
  5
2E1F
330
1F
100
AcDbEntity
  8
0
  6
ByBlock
 48
0.5
370
    20
100
AcDbLine
 10
2104.934156668212
 20
1193.886868933333
 30
0.0
 11
2104.934156668212
 21
1358.886868933333
 31
0.0
  0
LINE
  5
2E20
330
1F
100
AcDbEntity
  8
0
  6
ByBlock
 48
0.5
370
    20
100
AcDbLine
 10
2134.934156668212
 20
1193.886868933333
 30
0.0
 11
2134.934156668212
 21
1358.886868933333
 31
0.0
  0
LINE
  5
2E21
330
1F
100
AcDbEntity
  8
0
  6
ByBlock
 48
0.5
370
    20
100
AcDbLine
 10
2160.684156668212
 20
1193.886868933334
 30
0.0
 11
2160.684156668212
 21
1358.886868933333
 31
0.0
  0
LINE
  5
2E22
330
1F
100
AcDbEntity
  8
0
  6
ByBlock
 48
0.5
370
    20
100
AcDbLine
 10
2190.684156668213
 20
1193.886868933333
 30
0.0
 11
2190.684156668213
 21
1358.886868933333
 31
0.0
  0
LINE
  5
2E23
330
1F
100
AcDbEntity
  8
0
  6
ByBlock
 48
0.5
370
    20
100
AcDbLine
 10
2216.434156668213
 20
1193.886868933333
 30
0.0
 11
2216.434156668213
 21
1358.886868933333
 31
0.0
  0
LINE
  5
2E24
330
1F
100
AcDbEntity
  8
0
  6
ByBlock
 48
0.5
370
    20
100
AcDbLine
 10
2246.434156668212
 20
1193.886868933333
 30
0.0
 11
2246.434156668212
 21
1358.886868933333
 31
0.0
  0
LINE
  5
2E25
330
1F
100
AcDbEntity
  8
0
  6
ByBlock
 48
0.5
370
    20
100
AcDbLine
 10
2272.184156668212
 20
1193.886868933333
 30
0.0
 11
2272.184156668212
 21
1358.886868933333
 31
0.0
  0
LINE
  5
2E26
330
1F
100
AcDbEntity
  8
0
  6
ByBlock
 48
0.5
370
    20
100
AcDbLine
 10
2302.184156668212
 20
1193.886868933334
 30
0.0
 11
2302.184156668212
 21
1358.886868933333
 31
0.0
  0
LINE
  5
2E27
330
1F
100
AcDbEntity
  8
0
  6
ByBlock
 48
0.5
370
    20
100
AcDbLine
 10
2327.684156668212
 20
1193.886868933333
 30
0.0
 11
2327.684156668212
 21
1358.886868933333
 31
0.0
  0
LINE
  5
2E28
330
1F
100
AcDbEntity
  8
0
  6
ByBlock
 48
0.5
370
    20
100
AcDbLine
 10
2357.684156668212
 20
1193.886868933333
 30
0.0
 11
2357.684156668212
 21
1358.886868933333
 31
0.0
  0
ARC
  5
2E29
330
1F
100
AcDbEntity
  8
0
  6
ByBlock
 48
0.5
370
    20
100
AcDbCircle
 10
1952.684156668213
 20
1291.619163413543
 30
0.0
 40
98.87669788360888
100
AcDbArc
 50
261.2743056956627
 51
278.7256943043372
  0
CIRCLE
  5
2E3C
330
1F
100
AcDbEntity
  8
0
  6
ByBlock
 48
0.5
370
    20
100
AcDbCircle
 10
1565.87269331603
 20
722.4608765603388
 30
0.0
 40
25.0
  0
CIRCLE
  5
2E45
330
1F
100
AcDbEntity
  8
0
  6
ByBlock
 48
0.5
370
    20
100
AcDbCircle
 10
1565.87269331603
 20
342.4608765603389
 30
0.0
 40
25.0
  0
LINE
  5
2E46
330
1F
100
AcDbEntity
  8
0
  6
ByBlock
 48
0.5
370
    20
100
AcDbLine
 10
1590.87269331603
 20
722.4608765603388
 30
0.0
 11
1590.872693316029
 21
342.4608765603393
 31
0.0
  0
LINE
  5
2E47
330
1F
100
AcDbEntity
  8
0
  6
ByBlock
 48
0.5
370
    20
100
AcDbLine
 10
1540.87269331603
 20
722.4608765603393
 30
0.0
 11
1540.87269331603
 21
342.4608765603389
 31
0.0
  0
LINE
  5
2E53
330
1F
100
AcDbEntity
  8
0
  6
ByBlock
 48
0.5
370
    20
100
AcDbLine
 10
1590.87269331603
 20
697.4608765603393
 30
0.0
 11
1590.87269331603
 21
532.4608765603389
 31
0.0
  0
LINE
  5
2E55
330
1F
100
AcDbEntity
  8
0
  6
ByBlock
 48
0.5
370
    20
100
AcDbLine
 10
1590.872693316029
 20
367.4608765603393
 30
0.0
 11
1590.87269331603
 21
532.4608765603389
 31
0.0
  0
LINE
  5
2E5E
330
1F
100
AcDbEntity
  8
0
  6
ByBlock
 48
0.5
370
    20
100
AcDbLine
 10
1540.87269331603
 20
367.4608765603389
 30
0.0
 11
1540.87269331603
 21
532.4608765603393
 31
0.0
  0
LINE
  5
2E5F
330
1F
100
AcDbEntity
  8
0
  6
ByBlock
 48
0.5
370
    20
100
AcDbLine
 10
1570.87269331603
 20
366.9557739881711
 30
0.0
 11
1570.872693316031
 21
697.9659791325075
 31
0.0
  0
CIRCLE
  5
2E60
330
1F
100
AcDbEntity
  8
0
  6
ByBlock
 48
0.5
370
    20
100
AcDbCircle
 10
1565.87269331603
 20
722.4608765603388
 30
0.0
 40
15.0
  0
CIRCLE
  5
2E61
330
1F
100
AcDbEntity
  8
0
  6
ByBlock
 48
0.5
370
    20
100
AcDbCircle
 10
1565.87269331603
 20
722.4608765603388
 30
0.0
 40
12.5
  0
CIRCLE
  5
2E6A
330
1F
100
AcDbEntity
  8
0
  6
ByBlock
 48
0.5
370
    20
100
AcDbCircle
 10
1565.87269331603
 20
342.4608765603389
 30
0.0
 40
15.0
  0
CIRCLE
  5
2E6B
330
1F
100
AcDbEntity
  8
0
  6
ByBlock
 48
0.5
370
    20
100
AcDbCircle
 10
1565.87269331603
 20
342.4608765603389
 30
0.0
 40
12.5
  0
ARC
  5
2E6D
330
1F
100
AcDbEntity
  8
0
  6
ByBlock
 48
0.5
370
    20
100
AcDbCircle
 10
2008.434156668212
 20
1177.1253039086
 30
0.0
 40
8.238434975266841
100
AcDbArc
 50
221.0794017293496
 51
318.9205982706504
  0
ARC
  5
2E6F
330
1F
100
AcDbEntity
  8
0
  6
ByBlock
 48
0.5
370
    20
100
AcDbCircle
 10
2027.696878119801
 20
1194.63847728177
 30
0.0
 40
34.2709643339451
100
AcDbArc
 50
181.256674271545
 51
222.5640142343591
  0
ARC
  5
2E72
330
1F
100
AcDbEntity
  8
0
  6
ByBlock
 48
0.5
370
    20
100
AcDbCircle
 10
1989.171435216625
 20
1194.63847728177
 30
0.0
 40
34.2709643339451
100
AcDbArc
 50
317.4359857656403
 51
358.743325728455
  0
ARC
  5
2E7E
330
1F
100
AcDbEntity
  8
0
  6
ByBlock
 48
0.5
370
    20
100
AcDbCircle
 10
2064.184156668213
 20
1291.619163413543
 30
0.0
 40
98.87669788360888
100
AcDbArc
 50
261.2743056956627
 51
278.7256943043372
  0
ARC
  5
2E7F
330
1F
100
AcDbEntity
  8
0
  6
ByBlock
 48
0.5
370
    20
100
AcDbCircle
 10
2119.934156668213
 20
1177.125303908599
 30
0.0
 40
8.238434975266841
100
AcDbArc
 50
221.0794017293496
 51
318.9205982706504
  0
ARC
  5
2E80
330
1F
100
AcDbEntity
  8
0
  6
ByBlock
 48
0.5
370
    20
100
AcDbCircle
 10
2139.1968781198
 20
1194.63847728177
 30
0.0
 40
34.2709643339451
100
AcDbArc
 50
181.256674271545
 51
222.5640142343591
  0
ARC
  5
2E81
330
1F
100
AcDbEntity
  8
0
  6
ByBlock
 48
0.5
370
    20
100
AcDbCircle
 10
2100.671435216625
 20
1194.63847728177
 30
0.0
 40
34.2709643339451
100
AcDbArc
 50
317.4359857656403
 51
358.743325728455
  0
ARC
  5
2E8C
330
1F
100
AcDbEntity
  8
0
  6
ByBlock
 48
0.5
370
    20
100
AcDbCircle
 10
2175.684156668213
 20
1291.619163413543
 30
0.0
 40
98.87669788360888
100
AcDbArc
 50
261.2743056956627
 51
278.7256943043372
  0
ARC
  5
2E8D
330
1F
100
AcDbEntity
  8
0
  6
ByBlock
 48
0.5
370
    20
100
AcDbCircle
 10
2231.434156668212
 20
1177.1253039086
 30
0.0
 40
8.238434975266841
100
AcDbArc
 50
221.0794017293496
 51
318.9205982706504
  0
ARC
  5
2E8E
330
1F
100
AcDbEntity
  8
0
  6
ByBlock
 48
0.5
370
    20
100
AcDbCircle
 10
2250.6968781198
 20
1194.63847728177
 30
0.0
 40
34.2709643339451
100
AcDbArc
 50
181.256674271545
 51
222.5640142343591
  0
ARC
  5
2E8F
330
1F
100
AcDbEntity
  8
0
  6
ByBlock
 48
0.5
370
    20
100
AcDbCircle
 10
2212.171435216625
 20
1194.63847728177
 30
0.0
 40
34.2709643339451
100
AcDbArc
 50
317.4359857656403
 51
358.743325728455
  0
ARC
  5
2E9A
330
1F
100
AcDbEntity
  8
0
  6
ByBlock
 48
0.5
370
    20
100
AcDbCircle
 10
2287.184156668212
 20
1291.619163413543
 30
0.0
 40
98.87669788360888
100
AcDbArc
 50
261.2743056956627
 51
278.7256943043372
  0
ARC
  5
2E9B
330
1F
100
AcDbEntity
  8
0
  6
ByBlock
 48
0.5
370
    20
100
AcDbCircle
 10
2342.684156668212
 20
1177.125303908601
 30
0.0
 40
8.238434975266841
100
AcDbArc
 50
221.0794017293496
 51
318.9205982706504
  0
ARC
  5
2E9C
330
1F
100
AcDbEntity
  8
0
  6
ByBlock
 48
0.5
370
    20
100
AcDbCircle
 10
2361.9468781198
 20
1194.638477281771
 30
0.0
 40
34.2709643339451
100
AcDbArc
 50
181.256674271545
 51
222.5640142343591
  0
ARC
  5
2E9D
330
1F
100
AcDbEntity
  8
0
  6
ByBlock
 48
0.5
370
    20
100
AcDbCircle
 10
2323.421435216624
 20
1194.638477281772
 30
0.0
 40
34.2709643339451
100
AcDbArc
 50
317.4359857656403
 51
358.743325728455
  0
LINE
  5
2E9F
330
1F
100
AcDbEntity
  8
0
  6
ByBlock
 48
0.5
370
    20
100
AcDbLine
 10
1927.684156668212
 20
1573.886868933333
 30
0.0
 11
2377.684156668212
 21
1573.886868933333
 31
0.0
  0
LINE
  5
2EA0
330
1F
100
AcDbEntity
  8
0
  6
ByBlock
 48
0.5
370
    20
100
AcDbLine
 10
1927.684156668212
 20
1523.886868933333
 30
0.0
 11
1937.684156668212
 21
1523.886868933333
 31
0.0
  0
LINE
  5
2EA1
330
1F
100
AcDbEntity
  8
0
  6
ByBlock
 48
0.5
370
    20
100
AcDbLine
 10
1967.684156668212
 20
1523.886868933333
 30
0.0
 11
1993.434156668212
 21
1523.886868933333
 31
0.0
  0
LINE
  5
2EA2
330
1F
100
AcDbEntity
  8
0
  6
ByBlock
 48
0.5
370
    20
100
AcDbLine
 10
2023.434156668213
 20
1523.886868933333
 30
0.0
 11
2049.184156668212
 21
1523.886868933333
 31
0.0
  0
LINE
  5
2EA3
330
1F
100
AcDbEntity
  8
0
  6
ByBlock
 48
0.5
370
    20
100
AcDbLine
 10
2079.184156668212
 20
1523.886868933333
 30
0.0
 11
2104.934156668212
 21
1523.886868933333
 31
0.0
  0
LINE
  5
2EA4
330
1F
100
AcDbEntity
  8
0
  6
ByBlock
 48
0.5
370
    20
100
AcDbLine
 10
2134.934156668212
 20
1523.886868933333
 30
0.0
 11
2160.684156668212
 21
1523.886868933333
 31
0.0
  0
LINE
  5
2EA5
330
1F
100
AcDbEntity
  8
0
  6
ByBlock
 48
0.5
370
    20
100
AcDbLine
 10
2190.684156668213
 20
1523.886868933333
 30
0.0
 11
2216.434156668212
 21
1523.886868933333
 31
0.0
  0
LINE
  5
2EA6
330
1F
100
AcDbEntity
  8
0
  6
ByBlock
 48
0.5
370
    20
100
AcDbLine
 10
2246.434156668212
 20
1523.886868933333
 30
0.0
 11
2272.184156668212
 21
1523.886868933333
 31
0.0
  0
LINE
  5
2EA7
330
1F
100
AcDbEntity
  8
0
  6
ByBlock
 48
0.5
370
    20
100
AcDbLine
 10
2302.184156668212
 20
1523.886868933333
 30
0.0
 11
2327.684156668212
 21
1523.886868933333
 31
0.0
  0
LINE
  5
2EA8
330
1F
100
AcDbEntity
  8
0
  6
ByBlock
 48
0.5
370
    20
100
AcDbLine
 10
2357.684156668212
 20
1523.886868933334
 30
0.0
 11
2377.684156668212
 21
1523.886868933333
 31
0.0
  0
LINE
  5
2EA9
330
1F
100
AcDbEntity
  8
0
  6
ByBlock
 48
0.5
370
    20
100
AcDbLine
 10
2377.684156668212
 20
1533.886868933333
 30
0.0
 11
2835.623935437601
 21
1533.886868933333
 31
0.0
  0
LINE
  5
2EAA
102
{ACAD_REACTORS
330
3289
102
}
330
1F
100
AcDbEntity
  8
0
  6
ByBlock
 48
0.5
370
    20
100
AcDbLine
 10
1927.684156668212
 20
1573.886868933333
 30
0.0
 11
2377.684156668212
 21
1573.886868933333
 31
0.0
  0
LINE
  5
2EAB
330
1F
100
AcDbEntity
  8
0
  6
ByBlock
 48
0.5
370
    20
100
AcDbLine
 10
2377.684156668212
 20
1563.886868933333
 30
0.0
 11
2835.623935437602
 21
1563.886868933332
 31
0.0
  0
LINE
  5
2EAC
330
1F
100
AcDbEntity
  8
0
  6
ByBlock
 48
0.5
370
    20
100
AcDbLine
 10
1927.684156668212
 20
1573.886868933333
 30
0.0
 11
1927.684156668212
 21
1523.886868933333
 31
0.0
  0
LINE
  5
2EAD
330
1F
100
AcDbEntity
  8
0
  6
ByBlock
 48
0.5
370
    20
100
AcDbLine
 10
2377.684156668212
 20
1573.886868933333
 30
0.0
 11
2377.684156668212
 21
1523.886868933333
 31
0.0
  0
LINE
  5
2EAE
330
1F
100
AcDbEntity
  8
0
  6
ByBlock
 48
0.5
370
    20
100
AcDbLine
 10
1937.684156668212
 20
1523.886868933333
 30
0.0
 11
1937.684156668212
 21
1358.886868933333
 31
0.0
  0
LINE
  5
2EAF
330
1F
100
AcDbEntity
  8
0
  6
ByBlock
 48
0.5
370
    20
100
AcDbLine
 10
1967.684156668212
 20
1523.886868933333
 30
0.0
 11
1967.684156668213
 21
1358.886868933333
 31
0.0
  0
LINE
  5
2EB0
330
1F
100
AcDbEntity
  8
0
  6
ByBlock
 48
0.5
370
    20
100
AcDbLine
 10
1993.434156668212
 20
1523.886868933333
 30
0.0
 11
1993.434156668212
 21
1358.886868933333
 31
0.0
  0
LINE
  5
2EB1
330
1F
100
AcDbEntity
  8
0
  6
ByBlock
 48
0.5
370
    20
100
AcDbLine
 10
2023.434156668213
 20
1523.88686893334
 30
0.0
 11
2023.434156668213
 21
1358.886868933333
 31
0.0
  0
LINE
  5
2EB2
330
1F
100
AcDbEntity
  8
0
  6
ByBlock
 48
0.5
370
    20
100
AcDbLine
 10
2049.184156668212
 20
1523.886868933333
 30
0.0
 11
2049.184156668212
 21
1358.886868933333
 31
0.0
  0
LINE
  5
2EB3
330
1F
100
AcDbEntity
  8
0
  6
ByBlock
 48
0.5
370
    20
100
AcDbLine
 10
2079.184156668212
 20
1523.886868933333
 30
0.0
 11
2079.184156668212
 21
1358.886868933333
 31
0.0
  0
LINE
  5
2EB4
330
1F
100
AcDbEntity
  8
0
  6
ByBlock
 48
0.5
370
    20
100
AcDbLine
 10
2104.934156668212
 20
1523.886868933333
 30
0.0
 11
2104.934156668212
 21
1358.886868933333
 31
0.0
  0
LINE
  5
2EB5
330
1F
100
AcDbEntity
  8
0
  6
ByBlock
 48
0.5
370
    20
100
AcDbLine
 10
2134.934156668212
 20
1523.886868933333
 30
0.0
 11
2134.934156668212
 21
1358.886868933333
 31
0.0
  0
LINE
  5
2EB6
330
1F
100
AcDbEntity
  8
0
  6
ByBlock
 48
0.5
370
    20
100
AcDbLine
 10
2160.684156668212
 20
1523.886868933333
 30
0.0
 11
2160.684156668212
 21
1358.886868933333
 31
0.0
  0
LINE
  5
2EB7
330
1F
100
AcDbEntity
  8
0
  6
ByBlock
 48
0.5
370
    20
100
AcDbLine
 10
2190.684156668213
 20
1523.886868933333
 30
0.0
 11
2190.684156668213
 21
1358.886868933333
 31
0.0
  0
LINE
  5
2EB8
330
1F
100
AcDbEntity
  8
0
  6
ByBlock
 48
0.5
370
    20
100
AcDbLine
 10
2216.434156668213
 20
1523.886868933333
 30
0.0
 11
2216.434156668213
 21
1358.886868933333
 31
0.0
  0
LINE
  5
2EB9
330
1F
100
AcDbEntity
  8
0
  6
ByBlock
 48
0.5
370
    20
100
AcDbLine
 10
2246.434156668212
 20
1523.886868933333
 30
0.0
 11
2246.434156668212
 21
1358.886868933333
 31
0.0
  0
LINE
  5
2EBA
330
1F
100
AcDbEntity
  8
0
  6
ByBlock
 48
0.5
370
    20
100
AcDbLine
 10
2272.184156668212
 20
1523.886868933332
 30
0.0
 11
2272.184156668212
 21
1358.886868933333
 31
0.0
  0
LINE
  5
2EBB
330
1F
100
AcDbEntity
  8
0
  6
ByBlock
 48
0.5
370
    20
100
AcDbLine
 10
2302.184156668213
 20
1523.886868933333
 30
0.0
 11
2302.184156668212
 21
1358.886868933333
 31
0.0
  0
LINE
  5
2EBC
330
1F
100
AcDbEntity
  8
0
  6
ByBlock
 48
0.5
370
    20
100
AcDbLine
 10
2327.684156668212
 20
1523.886868933333
 30
0.0
 11
2327.684156668212
 21
1358.886868933333
 31
0.0
  0
LINE
  5
2EBD
330
1F
100
AcDbEntity
  8
0
  6
ByBlock
 48
0.5
370
    20
100
AcDbLine
 10
2357.684156668212
 20
1523.886868933333
 30
0.0
 11
2357.684156668212
 21
1358.886868933333
 31
0.0
  0
ARC
  5
2EBE
330
1F
100
AcDbEntity
  8
0
  6
ByBlock
 48
0.5
370
    20
100
AcDbCircle
 10
1952.684156668213
 20
1426.154574453123
 30
0.0
 40
98.87669788360888
100
AcDbArc
 50
81.27430569566277
 51
98.72569430433726
  0
ARC
  5
2EBF
330
1F
100
AcDbEntity
  8
0
  6
ByBlock
 48
0.5
370
    20
100
AcDbCircle
 10
2008.434156668212
 20
1540.648433958067
 30
0.0
 40
8.238434975266841
100
AcDbArc
 50
41.07940172934958
 51
138.9205982706504
  0
ARC
  5
2EC0
330
1F
100
AcDbEntity
  8
0
  6
ByBlock
 48
0.5
370
    20
100
AcDbCircle
 10
2027.696878119801
 20
1523.135260584896
 30
0.0
 40
34.2709643339451
100
AcDbArc
 50
137.4359857656403
 51
178.743325728455
  0
ARC
  5
2EC1
330
1F
100
AcDbEntity
  8
0
  6
ByBlock
 48
0.5
370
    20
100
AcDbCircle
 10
1989.171435216625
 20
1523.135260584896
 30
0.0
 40
34.2709643339451
100
AcDbArc
 50
1.256674271597064
 51
42.56401423435907
  0
ARC
  5
2EC2
330
1F
100
AcDbEntity
  8
0
  6
ByBlock
 48
0.5
370
    20
100
AcDbCircle
 10
2064.184156668213
 20
1426.154574453123
 30
0.0
 40
98.87669788360888
100
AcDbArc
 50
81.27430569564952
 51
98.72569430433726
  0
ARC
  5
2EC3
330
1F
100
AcDbEntity
  8
0
  6
ByBlock
 48
0.5
370
    20
100
AcDbCircle
 10
2119.934156668213
 20
1540.648433958067
 30
0.0
 40
8.238434975266841
100
AcDbArc
 50
41.07940172934958
 51
138.9205982706504
  0
ARC
  5
2EC4
330
1F
100
AcDbEntity
  8
0
  6
ByBlock
 48
0.5
370
    20
100
AcDbCircle
 10
2139.1968781198
 20
1523.135260584896
 30
0.0
 40
34.2709643339451
100
AcDbArc
 50
137.4359857656361
 51
178.743325728455
  0
ARC
  5
2EC5
330
1F
100
AcDbEntity
  8
0
  6
ByBlock
 48
0.5
370
    20
100
AcDbCircle
 10
2100.671435216625
 20
1523.135260584896
 30
0.0
 40
34.2709643339451
100
AcDbArc
 50
1.256674271597064
 51
42.56401423435907
  0
ARC
  5
2EC6
330
1F
100
AcDbEntity
  8
0
  6
ByBlock
 48
0.5
370
    20
100
AcDbCircle
 10
2175.684156668213
 20
1426.154574453123
 30
0.0
 40
98.87669788360888
100
AcDbArc
 50
81.27430569564952
 51
98.72569430433726
  0
ARC
  5
2EC7
330
1F
100
AcDbEntity
  8
0
  6
ByBlock
 48
0.5
370
    20
100
AcDbCircle
 10
2231.434156668212
 20
1540.648433958067
 30
0.0
 40
8.238434975266841
100
AcDbArc
 50
41.07940172934958
 51
138.9205982706504
  0
ARC
  5
2EC8
330
1F
100
AcDbEntity
  8
0
  6
ByBlock
 48
0.5
370
    20
100
AcDbCircle
 10
2250.6968781198
 20
1523.135260584896
 30
0.0
 40
34.2709643339451
100
AcDbArc
 50
137.4359857656361
 51
178.743325728455
  0
ARC
  5
2EC9
330
1F
100
AcDbEntity
  8
0
  6
ByBlock
 48
0.5
370
    20
100
AcDbCircle
 10
2212.171435216625
 20
1523.135260584896
 30
0.0
 40
34.2709643339451
100
AcDbArc
 50
1.256674271597064
 51
42.56401423435907
  0
ARC
  5
2ECA
330
1F
100
AcDbEntity
  8
0
  6
ByBlock
 48
0.5
370
    20
100
AcDbCircle
 10
2287.184156668212
 20
1426.154574453123
 30
0.0
 40
98.87669788360888
100
AcDbArc
 50
81.27430569564952
 51
98.72569430433726
  0
ARC
  5
2ECB
330
1F
100
AcDbEntity
  8
0
  6
ByBlock
 48
0.5
370
    20
100
AcDbCircle
 10
2342.684156668212
 20
1540.648433958067
 30
0.0
 40
8.238434975266841
100
AcDbArc
 50
41.07940172934958
 51
138.9205982706504
  0
ARC
  5
2ECC
330
1F
100
AcDbEntity
  8
0
  6
ByBlock
 48
0.5
370
    20
100
AcDbCircle
 10
2361.9468781198
 20
1523.135260584898
 30
0.0
 40
34.2709643339451
100
AcDbArc
 50
137.4359857656361
 51
178.743325728455
  0
ARC
  5
2ECD
330
1F
100
AcDbEntity
  8
0
  6
ByBlock
 48
0.5
370
    20
100
AcDbCircle
 10
2323.421435216625
 20
1523.135260584898
 30
0.0
 40
34.2709643339451
100
AcDbArc
 50
1.256674271597064
 51
42.56401423435907
  0
LINE
  5
2F08
330
1F
100
AcDbEntity
  8
0
  6
ByBlock
 48
0.5
370
    20
100
AcDbLine
 10
3221.914591074774
 20
1153.886868933333
 30
0.0
 11
3221.914591074773
 21
1183.886868933333
 31
0.0
  0
LINE
  5
2F09
330
1F
100
AcDbEntity
  8
0
  6
ByBlock
 48
0.5
370
    20
100
AcDbLine
 10
3191.914591074774
 20
1153.886868933333
 30
0.0
 11
3191.914591074775
 21
1183.886868933333
 31
0.0
  0
LINE
  5
2F0A
330
1F
100
AcDbEntity
  8
0
  6
ByBlock
 48
0.5
370
    20
100
AcDbLine
 10
2835.623935437601
 20
1563.886868933333
 30
0.0
 11
2835.623935437601
 21
1533.886868933333
 31
0.0
  0
LINE
  5
2F0B
330
1F
100
AcDbEntity
  8
0
  6
ByBlock
 48
0.5
370
    20
100
AcDbLine
 10
2805.623935437601
 20
1563.886868933333
 30
0.0
 11
2805.623935437601
 21
1533.886868933333
 31
0.0
  0
LINE
  5
2F0D
330
1F
100
AcDbEntity
  8
0
  6
ByBlock
 48
0.5
100
AcDbLine
 10
2823.973486029603
 20
340.9618813889037
 30
0.0
 11
2823.973486029603
 21
310.9618813889028
 31
0.0
  0
LINE
  5
2F0E
330
1F
100
AcDbEntity
  8
0
  6
ByBlock
 48
0.5
100
AcDbLine
 10
2793.973486029603
 20
340.9618813889029
 30
0.0
 11
2793.973486029603
 21
310.9618813889028
 31
0.0
  0
LINE
  5
2F11
330
1F
100
AcDbEntity
  8
0
  6
ByBlock
 48
0.5
100
AcDbLine
 10
2805.623935437601
 20
1563.886868933333
 30
0.0
 11
2807.623935437602
 21
1533.886868933333
 31
0.0
  0
LINE
  5
2F30
330
1F
100
AcDbEntity
  8
0
  6
ByBlock
 48
0.5
370
    20
100
AcDbLine
 10
2835.623935437602
 20
1563.886868933332
 30
0.0
 11
2835.623935437601
 21
1533.886868933333
 31
0.0
  0
LINE
  5
2F38
330
1F
100
AcDbEntity
  8
0
  6
ByBlock
 48
0.5
100
AcDbLine
 10
2807.615085880079
 20
1563.886868933333
 30
0.0
 11
2809.615085880079
 21
1533.886868933333
 31
0.0
  0
LINE
  5
2F40
330
1F
100
AcDbEntity
  8
0
  6
ByBlock
 48
0.5
100
AcDbLine
 10
2809.623935437601
 20
1563.886868933333
 30
0.0
 11
2811.623935437602
 21
1533.886868933333
 31
0.0
  0
LINE
  5
2F48
330
1F
100
AcDbEntity
  8
0
  6
ByBlock
 48
0.5
100
AcDbLine
 10
2811.623935437602
 20
1563.886868933333
 30
0.0
 11
2813.623935437601
 21
1533.886868933333
 31
0.0
  0
LINE
  5
2F50
330
1F
100
AcDbEntity
  8
0
  6
ByBlock
 48
0.5
100
AcDbLine
 10
2813.623935437601
 20
1563.886868933333
 30
0.0
 11
2815.623935437601
 21
1533.886868933333
 31
0.0
  0
LINE
  5
2F58
330
1F
100
AcDbEntity
  8
0
  6
ByBlock
 48
0.5
100
AcDbLine
 10
2815.623935437601
 20
1563.886868933333
 30
0.0
 11
2817.623935437601
 21
1533.886868933333
 31
0.0
  0
LINE
  5
2F60
330
1F
100
AcDbEntity
  8
0
  6
ByBlock
 48
0.5
100
AcDbLine
 10
2817.623935437602
 20
1563.886868933333
 30
0.0
 11
2819.623935437602
 21
1533.886868933333
 31
0.0
  0
LINE
  5
2F68
330
1F
100
AcDbEntity
  8
0
  6
ByBlock
 48
0.5
100
AcDbLine
 10
2819.623935437602
 20
1563.886868933333
 30
0.0
 11
2821.623935437601
 21
1533.886868933333
 31
0.0
  0
LINE
  5
2F70
330
1F
100
AcDbEntity
  8
0
  6
ByBlock
 48
0.5
100
AcDbLine
 10
2821.623935437602
 20
1563.886868933333
 30
0.0
 11
2823.623935437602
 21
1533.886868933333
 31
0.0
  0
LINE
  5
2F78
330
1F
100
AcDbEntity
  8
0
  6
ByBlock
 48
0.5
100
AcDbLine
 10
2823.623935437601
 20
1563.886868933332
 30
0.0
 11
2825.623935437601
 21
1533.886868933333
 31
0.0
  0
LINE
  5
2F80
330
1F
100
AcDbEntity
  8
0
  6
ByBlock
 48
0.5
100
AcDbLine
 10
2825.623935437602
 20
1563.886868933333
 30
0.0
 11
2827.623935437602
 21
1533.886868933333
 31
0.0
  0
LINE
  5
2F88
330
1F
100
AcDbEntity
  8
0
  6
ByBlock
 48
0.5
100
AcDbLine
 10
2827.623935437602
 20
1563.886868933332
 30
0.0
 11
2829.623935437602
 21
1533.886868933333
 31
0.0
  0
LINE
  5
2F90
330
1F
100
AcDbEntity
  8
0
  6
ByBlock
 48
0.5
100
AcDbLine
 10
2829.623935437601
 20
1563.886868933332
 30
0.0
 11
2831.623935437601
 21
1533.886868933333
 31
0.0
  0
LINE
  5
2F98
330
1F
100
AcDbEntity
  8
0
  6
ByBlock
 48
0.5
100
AcDbLine
 10
2831.623935437601
 20
1563.886868933333
 30
0.0
 11
2833.623935437602
 21
1533.886868933333
 31
0.0
  0
LINE
  5
2FA0
330
1F
100
AcDbEntity
  8
0
  6
ByBlock
 48
0.5
100
AcDbLine
 10
2833.623935437602
 20
1563.886868933333
 30
0.0
 11
2835.623935437601
 21
1533.886868933333
 31
0.0
  0
LINE
  5
2FB9
330
1F
100
AcDbEntity
  8
0
  6
ByBlock
 48
0.5
370
    20
100
AcDbLine
 10
3221.914591074773
 20
1183.886868933333
 30
0.0
 11
3221.914591074774
 21
1153.886868933333
 31
0.0
  0
LINE
  5
2FBA
330
1F
100
AcDbEntity
  8
0
  6
ByBlock
 48
0.5
370
    20
100
AcDbLine
 10
3191.914591074774
 20
1183.886868933333
 30
0.0
 11
3191.914591074774
 21
1153.886868933333
 31
0.0
  0
LINE
  5
2FBB
330
1F
100
AcDbEntity
  8
0
  6
ByBlock
 48
0.5
370
    20
100
AcDbLine
 10
3221.914591074774
 20
1183.886868933333
 30
0.0
 11
3221.914591074774
 21
1153.886868933333
 31
0.0
  0
LINE
  5
2FBC
330
1F
100
AcDbEntity
  8
0
  6
ByBlock
 48
0.5
100
AcDbLine
 10
3191.914591074774
 20
1183.886868933333
 30
0.0
 11
3193.914591074773
 21
1153.886868933334
 31
0.0
  0
LINE
  5
2FBD
330
1F
100
AcDbEntity
  8
0
  6
ByBlock
 48
0.5
100
AcDbLine
 10
3193.905741517251
 20
1183.886868933332
 30
0.0
 11
3195.905741517251
 21
1153.886868933333
 31
0.0
  0
LINE
  5
2FBE
330
1F
100
AcDbEntity
  8
0
  6
ByBlock
 48
0.5
100
AcDbLine
 10
3195.914591074774
 20
1183.886868933333
 30
0.0
 11
3197.914591074774
 21
1153.886868933333
 31
0.0
  0
LINE
  5
2FBF
330
1F
100
AcDbEntity
  8
0
  6
ByBlock
 48
0.5
100
AcDbLine
 10
3197.914591074774
 20
1183.886868933333
 30
0.0
 11
3199.914591074774
 21
1153.886868933333
 31
0.0
  0
LINE
  5
2FC0
330
1F
100
AcDbEntity
  8
0
  6
ByBlock
 48
0.5
100
AcDbLine
 10
3199.914591074774
 20
1183.886868933332
 30
0.0
 11
3201.914591074773
 21
1153.886868933333
 31
0.0
  0
LINE
  5
2FC1
330
1F
100
AcDbEntity
  8
0
  6
ByBlock
 48
0.5
100
AcDbLine
 10
3201.914591074773
 20
1183.886868933333
 30
0.0
 11
3203.914591074774
 21
1153.886868933333
 31
0.0
  0
LINE
  5
2FC2
330
1F
100
AcDbEntity
  8
0
  6
ByBlock
 48
0.5
100
AcDbLine
 10
3203.914591074774
 20
1183.886868933333
 30
0.0
 11
3205.914591074774
 21
1153.886868933333
 31
0.0
  0
LINE
  5
2FC3
330
1F
100
AcDbEntity
  8
0
  6
ByBlock
 48
0.5
100
AcDbLine
 10
3205.914591074774
 20
1183.886868933333
 30
0.0
 11
3207.914591074774
 21
1153.886868933333
 31
0.0
  0
LINE
  5
2FC4
330
1F
100
AcDbEntity
  8
0
  6
ByBlock
 48
0.5
100
AcDbLine
 10
3207.914591074774
 20
1183.886868933333
 30
0.0
 11
3209.914591074774
 21
1153.886868933334
 31
0.0
  0
LINE
  5
2FC5
330
1F
100
AcDbEntity
  8
0
  6
ByBlock
 48
0.5
100
AcDbLine
 10
3209.914591074774
 20
1183.886868933333
 30
0.0
 11
3211.914591074774
 21
1153.886868933333
 31
0.0
  0
LINE
  5
2FC6
330
1F
100
AcDbEntity
  8
0
  6
ByBlock
 48
0.5
100
AcDbLine
 10
3211.914591074774
 20
1183.886868933333
 30
0.0
 11
3213.914591074774
 21
1153.886868933333
 31
0.0
  0
LINE
  5
2FC7
330
1F
100
AcDbEntity
  8
0
  6
ByBlock
 48
0.5
100
AcDbLine
 10
3213.914591074774
 20
1183.886868933333
 30
0.0
 11
3215.914591074774
 21
1153.886868933333
 31
0.0
  0
LINE
  5
2FC8
330
1F
100
AcDbEntity
  8
0
  6
ByBlock
 48
0.5
100
AcDbLine
 10
3215.914591074774
 20
1183.886868933332
 30
0.0
 11
3217.914591074774
 21
1153.886868933333
 31
0.0
  0
LINE
  5
2FC9
330
1F
100
AcDbEntity
  8
0
  6
ByBlock
 48
0.5
100
AcDbLine
 10
3217.914591074773
 20
1183.886868933333
 30
0.0
 11
3219.914591074774
 21
1153.886868933333
 31
0.0
  0
LINE
  5
2FCA
330
1F
100
AcDbEntity
  8
0
  6
ByBlock
 48
0.5
100
AcDbLine
 10
3219.914591074774
 20
1183.886868933333
 30
0.0
 11
3221.914591074774
 21
1153.886868933333
 31
0.0
  0
LINE
  5
2FE3
330
1F
100
AcDbEntity
  8
0
  6
ByBlock
 48
0.5
370
    20
100
AcDbLine
 10
2823.973486029603
 20
340.9618813889037
 30
0.0
 11
2823.973486029603
 21
310.9618813889038
 31
0.0
  0
LINE
  5
2FE4
330
1F
100
AcDbEntity
  8
0
  6
ByBlock
 48
0.5
370
    20
100
AcDbLine
 10
2793.973486029603
 20
340.9618813889033
 30
0.0
 11
2793.973486029603
 21
310.9618813889038
 31
0.0
  0
LINE
  5
2FE5
330
1F
100
AcDbEntity
  8
0
  6
ByBlock
 48
0.5
370
    20
100
AcDbLine
 10
2823.973486029603
 20
340.9618813889037
 30
0.0
 11
2823.973486029603
 21
310.9618813889038
 31
0.0
  0
LINE
  5
2FE6
330
1F
100
AcDbEntity
  8
0
  6
ByBlock
 48
0.5
100
AcDbLine
 10
2793.973486029603
 20
340.9618813889033
 30
0.0
 11
2795.973486029603
 21
310.9618813889033
 31
0.0
  0
LINE
  5
2FE7
330
1F
100
AcDbEntity
  8
0
  6
ByBlock
 48
0.5
100
AcDbLine
 10
2795.964636472081
 20
340.9618813889029
 30
0.0
 11
2797.96463647208
 21
310.9618813889033
 31
0.0
  0
LINE
  5
2FE8
330
1F
100
AcDbEntity
  8
0
  6
ByBlock
 48
0.5
100
AcDbLine
 10
2797.973486029603
 20
340.9618813889029
 30
0.0
 11
2799.973486029603
 21
310.9618813889028
 31
0.0
  0
LINE
  5
2FE9
330
1F
100
AcDbEntity
  8
0
  6
ByBlock
 48
0.5
100
AcDbLine
 10
2799.973486029603
 20
340.9618813889024
 30
0.0
 11
2801.973486029602
 21
310.9618813889028
 31
0.0
  0
LINE
  5
2FEA
330
1F
100
AcDbEntity
  8
0
  6
ByBlock
 48
0.5
100
AcDbLine
 10
2801.973486029603
 20
340.9618813889029
 30
0.0
 11
2803.973486029603
 21
310.9618813889028
 31
0.0
  0
LINE
  5
2FEB
330
1F
100
AcDbEntity
  8
0
  6
ByBlock
 48
0.5
100
AcDbLine
 10
2803.973486029603
 20
340.9618813889033
 30
0.0
 11
2805.973486029603
 21
310.9618813889033
 31
0.0
  0
LINE
  5
2FEC
330
1F
100
AcDbEntity
  8
0
  6
ByBlock
 48
0.5
100
AcDbLine
 10
2805.973486029603
 20
340.9618813889033
 30
0.0
 11
2807.973486029603
 21
310.9618813889033
 31
0.0
  0
LINE
  5
2FED
330
1F
100
AcDbEntity
  8
0
  6
ByBlock
 48
0.5
100
AcDbLine
 10
2807.973486029603
 20
340.9618813889029
 30
0.0
 11
2809.973486029603
 21
310.9618813889033
 31
0.0
  0
LINE
  5
2FEE
330
1F
100
AcDbEntity
  8
0
  6
ByBlock
 48
0.5
100
AcDbLine
 10
2809.973486029603
 20
340.9618813889033
 30
0.0
 11
2811.973486029603
 21
310.9618813889033
 31
0.0
  0
LINE
  5
2FEF
330
1F
100
AcDbEntity
  8
0
  6
ByBlock
 48
0.5
100
AcDbLine
 10
2811.973486029603
 20
340.9618813889033
 30
0.0
 11
2813.973486029603
 21
310.9618813889033
 31
0.0
  0
LINE
  5
2FF0
330
1F
100
AcDbEntity
  8
0
  6
ByBlock
 48
0.5
100
AcDbLine
 10
2813.973486029603
 20
340.9618813889029
 30
0.0
 11
2815.973486029603
 21
310.9618813889033
 31
0.0
  0
LINE
  5
2FF1
330
1F
100
AcDbEntity
  8
0
  6
ByBlock
 48
0.5
100
AcDbLine
 10
2815.973486029603
 20
340.9618813889029
 30
0.0
 11
2817.973486029602
 21
310.9618813889033
 31
0.0
  0
LINE
  5
2FF2
330
1F
100
AcDbEntity
  8
0
  6
ByBlock
 48
0.5
100
AcDbLine
 10
2817.973486029602
 20
340.9618813889033
 30
0.0
 11
2819.973486029603
 21
310.9618813889033
 31
0.0
  0
LINE
  5
2FF3
330
1F
100
AcDbEntity
  8
0
  6
ByBlock
 48
0.5
100
AcDbLine
 10
2819.973486029603
 20
340.9618813889033
 30
0.0
 11
2821.973486029603
 21
310.9618813889033
 31
0.0
  0
LINE
  5
2FF4
330
1F
100
AcDbEntity
  8
0
  6
ByBlock
 48
0.5
100
AcDbLine
 10
2821.973486029603
 20
340.9618813889033
 30
0.0
 11
2823.973486029603
 21
310.9618813889038
 31
0.0
  0
LINE
  5
2FF5
330
1F
100
AcDbEntity
  8
0
  6
ByBlock
 48
0.5
100
AcDbLine
 10
1894.142983914273
 20
1407.859113539539
 30
0.0
 11
2541.079673201346
 21
1407.859113539539
 31
0.0
  0
MTEXT
  5
2FF8
102
{ACAD_XDICTIONARY
360
353C
102
}
330
1F
100
AcDbEntity
  8
0
  6
ByBlock
 48
0.5
100
AcDbMText
 10
2474.943646466886
 20
1382.911606618328
 30
0.0
 40
40.0
 41
1.468590392144506
 71
     1
 72
     5
  1
\U+0410
  7
стиль2
 73
     1
 44
1.0
1001
ACAD
1000
MTEXTBEGIN
1070
    73
1070
     1
1070
    44
1040
1.0
1070
    74
1070
     0
1000
MTEXTEND
  0
LINE
  5
2FF9
330
1F
100
AcDbEntity
  8
0
  6
ByBlock
 48
0.5
100
AcDbLine
 10
2463.990615531047
 20
1334.750112748502
 30
0.0
 11
2510.563175350978
 21
1334.750112748502
 31
0.0
  0
LINE
  5
2FFA
330
1F
100
AcDbEntity
  8
0
  6
ByBlock
 48
0.5
100
AcDbLine
 10
2465.462670702115
 20
1342.902861823778
 30
0.0
 11
2465.462670702115
 21
1396.181488345833
 31
0.0
  0
LINE
  5
2FFB
330
1F
100
AcDbEntity
  8
0
  6
ByBlock
 48
0.5
100
AcDbLine
 10
2465.462670702115
 20
1396.181488345833
 30
0.0
 11
2465.462670702115
 21
1396.181488345833
 31
0.0
  0
LINE
  5
2FFD
330
1F
100
AcDbEntity
  8
0
  6
ByBlock
 48
0.5
100
AcDbLine
 10
2465.462670702115
 20
1369.706171340137
 30
0.0
 11
2465.462670702115
 21
1369.706171340137
 31
0.0
  0
LINE
  5
2FFE
330
1F
100
AcDbEntity
  8
0
  6
ByBlock
 48
0.5
100
AcDbLine
 10
2465.462670702115
 20
1396.181488345833
 30
0.0
 11
2461.452189169586
 21
1369.706171340136
 31
0.0
  0
LINE
  5
2FFF
330
1F
100
AcDbEntity
  8
0
  6
ByBlock
 48
0.5
100
AcDbLine
 10
2465.462670702115
 20
1369.706171340137
 30
0.0
 11
2461.452189169586
 21
1369.706171340136
 31
0.0
  0
LINE
  5
3000
330
1F
100
AcDbEntity
  8
0
  6
ByBlock
 48
0.5
100
AcDbLine
 10
2461.452189169586
 20
1369.706171340136
 30
0.0
 11
2465.462670702115
 21
1369.706171340137
 31
0.0
  0
LINE
  5
3001
330
1F
100
AcDbEntity
  8
0
  6
ByBlock
 48
0.5
100
AcDbLine
 10
2465.462670702115
 20
1396.181488345833
 30
0.0
 11
2469.473152234643
 21
1369.706171340137
 31
0.0
  0
LINE
  5
3002
330
1F
100
AcDbEntity
  8
0
  6
ByBlock
 48
0.5
100
AcDbLine
 10
2465.462670702115
 20
1369.706171340137
 30
0.0
 11
2469.473152234643
 21
1369.706171340137
 31
0.0
  0
LINE
  5
3003
330
1F
100
AcDbEntity
  8
0
  6
ByBlock
 48
0.5
100
AcDbLine
 10
2469.473152234643
 20
1369.706171340137
 30
0.0
 11
2465.462670702115
 21
1369.706171340137
 31
0.0
  0
LINE
  5
301B
330
1F
100
AcDbEntity
  8
0
  6
ByBlock
 62
     1
 48
0.5
100
AcDbLine
 10
2403.579484634594
 20
1093.886868933333
 30
0.0
 11
2403.579484634594
 21
1592.072662716997
 31
0.0
  0
LINE
  5
3023
330
1F
100
AcDbEntity
  8
0
  6
ByBlock
 48
0.5
100
AcDbLine
 10
2284.391788844022
 20
2091.227538017277
 30
0.0
 11
3705.602491743117
 21
678.5972076540665
 31
0.0
  0
LINE
  5
3024
330
1F
100
AcDbEntity
  8
0
  6
ByBlock
 48
0.5
100
AcDbLine
 10
2180.198475684707
 20
1983.299153578665
 30
0.0
 11
3599.858108537919
 21
572.2105288801153
 31
0.0
  0
LINE
  5
302C
330
1F
100
AcDbEntity
  8
0
  6
ByBlock
 62
     1
 48
0.5
100
AcDbLine
 10
2220.660931733833
 20
1773.886868933333
 30
0.0
 11
2403.579484634594
 21
1592.072662716997
 31
0.0
  0
LINE
  5
3032
330
1F
100
AcDbEntity
  8
0
  6
ByBlock
 62
     1
 48
0.5
100
AcDbLine
 10
1901.78882870183
 20
1093.886868933333
 30
0.0
 11
1901.78882870183
 21
1592.072662716996
 31
0.0
  0
LINE
  5
3033
330
1F
100
AcDbEntity
  8
0
  6
ByBlock
 62
     1
 48
0.5
100
AcDbLine
 10
2084.707381602591
 20
1773.886868933333
 30
0.0
 11
1901.78882870183
 21
1592.072662716996
 31
0.0
  0
CIRCLE
  5
3035
330
1F
100
AcDbEntity
  8
0
  6
ByBlock
 48
0.5
100
AcDbCircle
 10
2331.033707260214
 20
335.9618813889033
 30
0.0
 40
12.5
  0
CIRCLE
  5
303D
330
1F
100
AcDbEntity
  8
0
  6
ByBlock
 48
0.5
100
AcDbCircle
 10
2275.533707260214
 20
315.9618813889029
 30
0.0
 40
12.5
  0
CIRCLE
  5
3045
330
1F
100
AcDbEntity
  8
0
  6
ByBlock
 48
0.5
100
AcDbCircle
 10
2219.783707260214
 20
335.9618813889033
 30
0.0
 40
12.5
  0
CIRCLE
  5
304D
330
1F
100
AcDbEntity
  8
0
  6
ByBlock
 48
0.5
100
AcDbCircle
 10
2164.033707260214
 20
315.9618813889029
 30
0.0
 40
12.5
  0
CIRCLE
  5
3055
330
1F
100
AcDbEntity
  8
0
  6
ByBlock
 48
0.5
100
AcDbCircle
 10
2108.283707260214
 20
335.9618813889028
 30
0.0
 40
12.5
  0
CIRCLE
  5
305D
330
1F
100
AcDbEntity
  8
0
  6
ByBlock
 48
0.5
100
AcDbCircle
 10
2052.533707260214
 20
315.9618813889033
 30
0.0
 40
12.5
  0
CIRCLE
  5
3065
330
1F
100
AcDbEntity
  8
0
  6
ByBlock
 48
0.5
100
AcDbCircle
 10
1996.783707260213
 20
335.9618813889028
 30
0.0
 40
12.5
  0
CIRCLE
  5
306D
330
1F
100
AcDbEntity
  8
0
  6
ByBlock
 48
0.5
100
AcDbCircle
 10
1941.033707260214
 20
315.9618813889029
 30
0.0
 40
12.5
  0
LINE
  5
3070
330
1F
100
AcDbEntity
  8
0
  6
ByBlock
 48
0.5
100
AcDbLine
 10
3227.925175480912
 20
3086.446506024485
 30
0.0
 11
2373.045581449634
 21
2236.728135009016
 31
0.0
  0
LINE
  5
3071
330
1F
100
AcDbEntity
  8
0
  6
ByBlock
 48
0.5
100
AcDbLine
 10
2802.370657727692
 20
3086.446506024484
 30
0.0
 11
550.3943811928507
 21
848.0662398174816
 31
0.0
  0
LINE
  5
3073
330
1F
100
AcDbEntity
  8
0
  6
ByBlock
 48
0.5
100
AcDbLine
 10
2049.56109319297
 20
1915.196641767913
 30
0.0
 11
758.294300988825
 21
631.7257028441741
 31
0.0
  0
CIRCLE
  5
3086
330
1F
100
AcDbEntity
  8
0
  6
ByBlock
 48
0.5
370
    20
100
AcDbCircle
 10
5345.061877588449
 20
1823.840498809398
 30
0.0
 40
25.0
  0
CIRCLE
  5
3087
330
1F
100
AcDbEntity
  8
0
  6
ByBlock
 48
0.5
370
    20
100
AcDbCircle
 10
5724.550686684035
 20
1804.136596373213
 30
0.0
 40
25.0
  0
LINE
  5
3088
330
1F
100
AcDbEntity
  8
0
  6
ByBlock
 48
0.5
370
    20
100
AcDbLine
 10
5346.358186959252
 20
1848.806867828844
 30
0.0
 11
5725.846996054837
 21
1829.10296539266
 31
0.0
  0
LINE
  5
3089
330
1F
100
AcDbEntity
  8
0
  6
ByBlock
 48
0.5
370
    20
100
AcDbLine
 10
5343.765568217648
 20
1798.874129789951
 30
0.0
 11
5723.254377313232
 21
1779.170227353767
 31
0.0
  0
LINE
  5
308A
330
1F
100
AcDbEntity
  8
0
  6
ByBlock
 48
0.5
370
    20
100
AcDbLine
 10
5371.324555978698
 20
1847.510558458042
 30
0.0
 11
5536.102591507044
 21
1838.954916610752
 31
0.0
  0
LINE
  5
308B
330
1F
100
AcDbEntity
  8
0
  6
ByBlock
 48
0.5
370
    20
100
AcDbLine
 10
5700.88062703539
 20
1830.399274763461
 30
0.0
 11
5536.102591507044
 21
1838.954916610752
 31
0.0
  0
LINE
  5
308D
330
1F
100
AcDbEntity
  8
0
  6
ByBlock
 48
0.5
370
    20
100
AcDbLine
 10
5700.348002627126
 20
1810.399988780003
 30
0.0
 11
5369.783085393679
 21
1827.563654010387
 31
0.0
  0
CIRCLE
  5
308E
330
1F
100
AcDbEntity
  8
0
  6
ByBlock
 48
0.5
370
    20
100
AcDbCircle
 10
5345.061877588449
 20
1823.840498809398
 30
0.0
 40
15.0
  0
CIRCLE
  5
308F
330
1F
100
AcDbEntity
  8
0
  6
ByBlock
 48
0.5
370
    20
100
AcDbCircle
 10
5345.061877588449
 20
1823.840498809398
 30
0.0
 40
12.5
  0
CIRCLE
  5
3090
330
1F
100
AcDbEntity
  8
0
  6
ByBlock
 48
0.5
370
    20
100
AcDbCircle
 10
5724.550686684035
 20
1804.136596373213
 30
0.0
 40
15.0
  0
CIRCLE
  5
3091
330
1F
100
AcDbEntity
  8
0
  6
ByBlock
 48
0.5
370
    20
100
AcDbCircle
 10
5724.550686684035
 20
1804.136596373213
 30
0.0
 40
12.5
  0
LINE
  5
3092
330
1F
100
AcDbEntity
  8
0
  6
ByBlock
 62
     1
 48
0.5
370
    20
100
AcDbLine
 10
1901.78882870183
 20
1093.886868933333
 30
0.0
 11
2403.579484634594
 21
1093.886868933333
 31
0.0
  0
LINE
  5
3094
330
1F
100
AcDbEntity
  8
0
  6
ByBlock
 62
     1
 48
0.5
100
AcDbLine
 10
5270.06187758845
 20
1898.806867828844
 30
0.0
 11
5270.06187758845
 21
1735.1895160278
 31
0.0
  0
LINE
  5
3095
330
1F
100
AcDbEntity
  8
0
  6
ByBlock
 48
0.5
370
    20
100
AcDbLine
 10
5700.88062703539
 20
1830.399274763461
 30
0.0
 11
5536.102591507044
 21
1838.954916610753
 31
0.0
  0
LINE
  5
3098
330
1F
100
AcDbEntity
  8
0
  6
ByBlock
 48
0.5
100
AcDbLine
 10
5270.06187758845
 20
1735.1895160278
 30
0.0
 11
5103.183530848339
 21
1735.1895160278
 31
0.0
  0
LINE
  5
3099
330
1F
100
AcDbEntity
  8
0
  6
ByBlock
 48
0.5
100
AcDbLine
 10
5103.183530848339
 20
1735.1895160278
 30
0.0
 11
5103.183530848339
 21
1735.1895160278
 31
0.0
  0
LINE
  5
309A
330
1F
100
AcDbEntity
  8
0
  6
ByBlock
 48
0.5
100
AcDbLine
 10
5103.183530848339
 20
1735.1895160278
 30
0.0
 11
5103.183530848339
 21
1936.702306418843
 31
0.0
  0
LINE
  5
30A0
330
1F
100
AcDbEntity
  8
0
  6
ByBlock
 62
     1
 48
0.5
100
AcDbLine
 10
5270.06187758845
 20
1198.806867828844
 30
0.0
 11
5949.549126463957
 21
1198.806867828844
 31
0.0
  0
LINE
  5
30A9
330
1F
100
AcDbEntity
  8
0
  6
ByBlock
 62
     1
 48
0.5
100
AcDbLine
 10
5270.06187758845
 20
1248.806867828844
 30
0.0
 11
5270.06187758845
 21
1198.806867828844
 31
0.0
  0
LINE
  5
30AA
330
1F
100
AcDbEntity
  8
0
  6
ByBlock
 48
0.5
100
AcDbLine
 10
5103.183530848339
 20
1198.806867828844
 30
0.0
 11
5103.183530848339
 21
1248.806867828844
 31
0.0
  0
LINE
  5
30AB
330
1F
100
AcDbEntity
  8
0
  6
ByBlock
 48
0.5
100
AcDbLine
 10
5103.183530848339
 20
1248.806867828844
 30
0.0
 11
5270.06187758845
 21
1248.806867828844
 31
0.0
  0
LINE
  5
30AC
330
1F
100
AcDbEntity
  8
0
  6
ByBlock
 62
     1
 48
0.5
100
AcDbLine
 10
5270.06187758845
 20
1898.806867828844
 30
0.0
 11
5420.338706267806
 21
1939.249397178105
 31
0.0
  0
CIRCLE
  5
30AE
330
1F
100
AcDbEntity
  8
0
  6
ByBlock
 62
     1
 48
0.5
100
AcDbCircle
 10
2086.791260952533
 20
2076.142434547671
 30
0.0
 40
75.0
  0
CIRCLE
  5
30B7
330
1F
100
AcDbEntity
  8
0
  6
ByBlock
 62
     1
 48
0.5
100
AcDbCircle
 10
2192.535644157733
 20
2182.529113321624
 30
0.0
 40
75.0
  0
LINE
  5
30B8
330
1F
100
AcDbEntity
  8
0
  6
ByBlock
 62
     1
 48
0.5
100
AcDbLine
 10
2014.489352156056
 20
2056.206688151164
 30
0.0
 11
2084.707381602591
 21
1773.886868933333
 31
0.0
  0
LINE
  5
30B9
330
1F
100
AcDbEntity
  8
0
  6
ByBlock
 62
     1
 48
0.5
100
AcDbLine
 10
2161.743773143587
 20
2078.810939044526
 30
0.0
 11
2220.660931733833
 21
1773.886868933333
 31
0.0
  0
LINE
  5
30D4
330
1F
100
AcDbEntity
  8
0
  6
ByBlock
 48
0.5
100
AcDbLine
 10
6174.549126463958
 20
2767.171954564255
 30
0.0
 11
6174.549126463958
 21
2585.675588158369
 31
0.0
  0
LINE
  5
30D5
330
1F
100
AcDbEntity
  8
0
  6
ByBlock
 48
0.5
100
AcDbLine
 10
6324.549126463957
 20
2783.4611612511
 30
0.0
 11
6324.549126463957
 21
2450.830411432566
 31
0.0
  0
ARC
  5
30DC
330
1F
100
AcDbEntity
  8
0
  6
ByBlock
 62
     1
 48
0.5
100
AcDbCircle
 10
2153.385451071883
 20
1914.872006233048
 30
0.0
 40
156.2097639641235
100
AcDbArc
 50
243.8392819405102
 51
295.5100064254439
  0
LINE
  5
30DD
330
1F
100
AcDbEntity
  8
0
  6
ByBlock
 62
     1
 48
0.5
100
AcDbLine
 10
5949.549126463957
 20
1869.074629592462
 30
0.0
 11
5949.549126463957
 21
1198.806867828844
 31
0.0
  0
LINE
  5
30DF
330
1F
100
AcDbEntity
  8
0
 48
4.0
370
    50
100
AcDbLine
 10
5305.278647038451
 20
1780.921641445549
 30
0.0
 11
5763.27591353384
 21
1757.445043136726
 31
0.0
  0
CIRCLE
  5
3101
330
1F
100
AcDbEntity
  8
0
  6
ByBlock
 48
0.5
100
AcDbCircle
 10
5763.27591353384
 20
1757.445043136726
 30
0.0
 40
9.550586806426508
  0
SPLINE
  5
3102
330
1F
100
AcDbEntity
  8
0
  6
ByBlock
 48
0.5
100
AcDbSpline
210
0.0
220
0.0
230
1.0
 70
     8
 71
     3
 72
    10
 73
     6
 74
     0
 42
0.0000000001
 43
0.0000000001
 40
0.0
 40
0.0
 40
0.0
 40
0.0
 40
456.3997745208902
 40
968.6658504963057
 40
1268.844566654258
 40
1268.844566654258
 40
1268.844566654258
 40
1268.844566654258
 10
5103.183530848339
 20
1936.702306418843
 30
0.0
 10
5103.183530848339
 20
2088.835564592474
 30
0.0
 10
5576.222346208883
 20
2157.413071528388
 30
0.0
 10
5730.508520196448
 20
2570.02679348273
 30
0.0
 10
6060.15865879842
 20
2698.41756270905
 30
0.0
 10
6154.549126463958
 20
2731.829852716906
 30
0.0
  0
LINE
  5
312B
330
1F
100
AcDbEntity
  8
0
  6
ByBlock
 48
4.0
100
AcDbLine
 10
3599.858108537919
 20
572.2105288801153
 30
0.0
 11
3705.602491743117
 21
678.5972076540665
 31
0.0
  0
LINE
  5
3135
330
1F
100
AcDbEntity
  8
0
  6
ByBlock
 62
     1
 48
4.0
100
AcDbLine
 10
5949.549126463957
 20
1869.074629592462
 30
0.0
 11
5778.758418986603
 21
1983.038667034163
 31
0.0
  0
LINE
  5
3136
330
1F
100
AcDbEntity
  8
0
  6
ByBlock
 62
     1
 48
4.0
100
AcDbLine
 10
5778.758418986603
 20
1983.038667034163
 30
0.0
 11
6314.549126463958
 21
2450.830411432566
 31
0.0
  0
LINE
  5
3137
330
1F
100
AcDbEntity
  8
0
  6
ByBlock
 62
     1
 48
4.0
100
AcDbLine
 10
5420.338706267806
 20
1939.249397178105
 30
0.0
 11
6174.549126463958
 21
2585.675588158369
 31
0.0
  0
LINE
  5
3138
330
1F
100
AcDbEntity
  8
0
  6
ByBlock
 48
4.0
100
AcDbLine
 10
5119.138427878027
 20
2001.375778706778
 30
0.0
 11
5190.359188848166
 21
2072.596539676917
 31
0.0
1001
ACAD
1010
0.0
1020
0.0
1030
0.0
  0
LINE
  5
3139
330
1F
100
AcDbEntity
  8
0
  6
ByBlock
 48
4.0
100
AcDbLine
 10
5103.183530848339
 20
1872.283796687241
 30
0.0
 11
5404.788232264426
 21
2173.888498103329
 31
0.0
1001
ACAD
1010
0.0
1020
0.0
1030
0.0
  0
LINE
  5
313B
330
1F
100
AcDbEntity
  8
0
  6
ByBlock
 48
4.0
100
AcDbLine
 10
5103.183530848338
 20
1759.146711697393
 30
0.0
 11
6026.410979108469
 21
2682.374159957525
 31
0.0
1001
ACAD
1010
0.0
1020
0.0
1030
0.0
  0
LINE
  5
313C
330
1F
100
AcDbEntity
  8
0
  6
ByBlock
 48
4.0
100
AcDbLine
 10
5192.363420168593
 20
1735.1895160278
 30
0.0
 11
5270.06187758845
 21
1812.887973447656
 31
0.0
1001
ACAD
1010
0.0
1020
0.0
1030
0.0
  0
LINE
  5
313D
330
1F
100
AcDbEntity
  8
0
  6
ByBlock
 48
4.0
100
AcDbLine
 10
5387.61731382278
 20
1930.443409681987
 30
0.0
 11
6154.549126463958
 21
2697.375222323166
 31
0.0
1001
ACAD
1010
0.0
1020
0.0
1030
0.0
  0
LINE
  5
313E
330
1F
100
AcDbEntity
  8
0
  6
ByBlock
 48
4.0
100
AcDbLine
 10
6044.65936323052
 20
2474.348374099881
 30
0.0
 11
6154.549126463958
 21
2584.238137333318
 31
0.0
1001
ACAD
1010
0.0
1020
0.0
1030
0.0
  0
LINE
  5
313F
330
1F
100
AcDbEntity
  8
0
  6
ByBlock
 48
4.0
100
AcDbLine
 10
6324.549126463956
 20
2754.238137333317
 30
0.0
 11
6353.231990823625
 21
2782.921001692985
 31
0.0
1001
ACAD
1010
0.0
1020
0.0
1030
0.0
  0
LINE
  5
3141
330
1F
100
AcDbEntity
  8
0
  6
ByBlock
 48
4.0
100
AcDbLine
 10
6324.549126463957
 20
2641.10105234347
 30
0.0
 11
6404.549126463958
 21
2721.101052343469
 31
0.0
1001
ACAD
1010
0.0
1020
0.0
1030
0.0
  0
LINE
  5
3142
330
1F
100
AcDbEntity
  8
0
  6
ByBlock
 48
4.0
100
AcDbLine
 10
6324.549126463956
 20
2527.963967353622
 30
0.0
 11
6404.549126463956
 21
2607.963967353622
 31
0.0
1001
ACAD
1010
0.0
1020
0.0
1030
0.0
  0
LINE
  5
3143
330
1F
100
AcDbEntity
  8
0
  6
ByBlock
 48
4.0
100
AcDbLine
 10
5104.863758743009
 20
1195.141514642826
 30
0.0
 11
5158.529111929029
 21
1248.806867828845
 31
0.0
1001
ACAD
1010
0.0
1020
0.0
1030
0.0
  0
LINE
  5
3144
330
1F
100
AcDbEntity
  8
0
  6
ByBlock
 48
4.0
100
AcDbLine
 10
6214.267542857324
 20
2304.545298757141
 30
0.0
 11
6404.549126463956
 21
2494.826882363774
 31
0.0
1001
ACAD
1010
0.0
1020
0.0
1030
0.0
  0
LINE
  5
3145
330
1F
100
AcDbEntity
  8
0
  6
ByBlock
 48
4.0
100
AcDbLine
 10
5141.378654356075
 20
1118.519325266045
 30
0.0
 11
5270.061877588449
 21
1247.202548498419
 31
0.0
1001
ACAD
1010
0.0
1020
0.0
1030
0.0
  0
LINE
  5
3146
330
1F
100
AcDbEntity
  8
0
  6
ByBlock
 48
4.0
100
AcDbLine
 10
5949.549126463959
 20
1926.689797373928
 30
0.0
 11
6404.549126463956
 21
2381.689797373927
 31
0.0
1001
ACAD
1010
0.0
1020
0.0
1030
0.0
  0
LINE
  5
3147
330
1F
100
AcDbEntity
  8
0
  6
ByBlock
 48
4.0
100
AcDbLine
 10
5183.249025188054
 20
1047.252611108176
 30
0.0
 11
5334.803281908722
 21
1198.806867828845
 31
0.0
1001
ACAD
1010
0.0
1020
0.0
1030
0.0
  0
LINE
  5
3148
330
1F
100
AcDbEntity
  8
0
  6
ByBlock
 48
4.0
100
AcDbLine
 10
5949.549126463959
 20
1813.55271238408
 30
0.0
 11
6404.549126463956
 21
2268.552712384078
 31
0.0
1001
ACAD
1010
0.0
1020
0.0
1030
0.0
  0
LINE
  5
3149
330
1F
100
AcDbEntity
  8
0
  6
ByBlock
 48
4.0
100
AcDbLine
 10
5236.236439833843
 20
987.1029407641174
 30
0.0
 11
5447.940366898571
 21
1198.806867828845
 31
0.0
1001
ACAD
1010
0.0
1020
0.0
1030
0.0
  0
LINE
  5
314A
330
1F
100
AcDbEntity
  8
0
  6
ByBlock
 48
4.0
100
AcDbLine
 10
5949.549126463959
 20
1700.415627394232
 30
0.0
 11
6404.549126463956
 21
2155.415627394231
 31
0.0
1001
ACAD
1010
0.0
1020
0.0
1030
0.0
  0
LINE
  5
314B
330
1F
100
AcDbEntity
  8
0
  6
ByBlock
 48
4.0
100
AcDbLine
 10
5305.139380932954
 20
942.86879687338
 30
0.0
 11
5561.077451888419
 21
1198.806867828845
 31
0.0
1001
ACAD
1010
0.0
1020
0.0
1030
0.0
  0
LINE
  5
314C
330
1F
100
AcDbEntity
  8
0
  6
ByBlock
 48
4.0
100
AcDbLine
 10
5949.549126463959
 20
1587.278542404385
 30
0.0
 11
6404.549126463956
 21
2042.278542404383
 31
0.0
1001
ACAD
1010
0.0
1020
0.0
1030
0.0
  0
LINE
  5
314D
330
1F
100
AcDbEntity
  8
0
  6
ByBlock
 48
4.0
100
AcDbLine
 10
5390.758312372895
 20
915.3506433234744
 30
0.0
 11
5674.214536878266
 21
1198.806867828845
 31
0.0
1001
ACAD
1010
0.0
1020
0.0
1030
0.0
  0
LINE
  5
314E
330
1F
100
AcDbEntity
  8
0
  6
ByBlock
 48
4.0
100
AcDbLine
 10
5949.549126463959
 20
1474.141457414537
 30
0.0
 11
6404.549126463956
 21
1929.141457414536
 31
0.0
1001
ACAD
1010
0.0
1020
0.0
1030
0.0
  0
LINE
  5
314F
330
1F
100
AcDbEntity
  8
0
  6
ByBlock
 48
4.0
100
AcDbLine
 10
5494.223172218267
 20
905.6784181789986
 30
0.0
 11
5787.351621868113
 21
1198.806867828845
 31
0.0
1001
ACAD
1010
0.0
1020
0.0
1030
0.0
  0
LINE
  5
3150
330
1F
100
AcDbEntity
  8
0
  6
ByBlock
 48
4.0
100
AcDbLine
 10
5949.549126463959
 20
1361.00437242469
 30
0.0
 11
6404.549126463956
 21
1816.004372424688
 31
0.0
1001
ACAD
1010
0.0
1020
0.0
1030
0.0
  0
LINE
  5
3151
330
1F
100
AcDbEntity
  8
0
  6
ByBlock
 48
4.0
100
AcDbLine
 10
5618.638316122961
 20
916.956477093845
 30
0.0
 11
5900.488706857961
 21
1198.806867828845
 31
0.0
1001
ACAD
1010
0.0
1020
0.0
1030
0.0
  0
LINE
  5
3152
330
1F
100
AcDbEntity
  8
0
  6
ByBlock
 48
4.0
100
AcDbLine
 10
5949.549126463959
 20
1247.867287434842
 30
0.0
 11
6404.549126463958
 21
1702.867287434841
 31
0.0
1001
ACAD
1010
0.0
1020
0.0
1030
0.0
  0
LINE
  5
3153
330
1F
100
AcDbEntity
  8
0
  6
ByBlock
 48
4.0
100
AcDbLine
 10
5772.764787183441
 20
957.9458631644778
 30
0.0
 11
6404.549126463956
 21
1589.730202444992
 31
0.0
1001
ACAD
1010
0.0
1020
0.0
1030
0.0
  0
LINE
  5
3154
330
1F
100
AcDbEntity
  8
0
  6
ByBlock
 48
4.0
100
AcDbLine
 10
6010.307796957063
 20
1082.351787948252
 30
0.0
 11
6404.549126463956
 21
1476.593117455146
 31
0.0
1001
ACAD
1010
0.0
1020
0.0
1030
0.0
  0
LINE
  5
3156
330
1F
100
AcDbEntity
  8
0
  6
ByBlock
 48
4.0
100
AcDbLine
 10
5117.394454816543
 20
1998.031805645293
 30
0.0
 11
5194.802015261088
 21
2075.439366089838
 31
0.0
1001
ACAD
1010
0.0
1020
0.0
1030
0.0
  0
LINE
  5
3157
330
1F
100
AcDbEntity
  8
0
  6
ByBlock
 48
4.0
100
AcDbLine
 10
5103.183530848339
 20
1870.683796687241
 30
0.0
 11
5407.804858334201
 21
2175.305124173103
 31
0.0
1001
ACAD
1010
0.0
1020
0.0
1030
0.0
  0
LINE
  5
3159
330
1F
100
AcDbEntity
  8
0
  6
ByBlock
 48
4.0
100
AcDbLine
 10
5103.183530848339
 20
1757.546711697393
 30
0.0
 11
6029.206936348545
 21
2683.5701171976
 31
0.0
1001
ACAD
1010
0.0
1020
0.0
1030
0.0
  0
LINE
  5
315A
330
1F
100
AcDbEntity
  8
0
  6
ByBlock
 48
4.0
100
AcDbLine
 10
5193.963420168593
 20
1735.1895160278
 30
0.0
 11
5270.06187758845
 21
1811.287973447656
 31
0.0
1001
ACAD
1010
0.0
1020
0.0
1030
0.0
  0
LINE
  5
315B
330
1F
100
AcDbEntity
  8
0
  6
ByBlock
 48
4.0
100
AcDbLine
 10
5389.806456261467
 20
1931.032552120674
 30
0.0
 11
6154.549126463958
 21
2695.775222323165
 31
0.0
1001
ACAD
1010
0.0
1020
0.0
1030
0.0
  0
LINE
  5
315C
330
1F
100
AcDbEntity
  8
0
  6
ByBlock
 48
4.0
100
AcDbLine
 10
6055.855218886711
 20
2483.94422975607
 30
0.0
 11
6154.549126463958
 21
2582.638137333317
 31
0.0
1001
ACAD
1010
0.0
1020
0.0
1030
0.0
  0
LINE
  5
315D
330
1F
100
AcDbEntity
  8
0
  6
ByBlock
 48
4.0
100
AcDbLine
 10
6324.549126463957
 20
2752.638137333317
 30
0.0
 11
6354.765917501436
 21
2782.854928370796
 31
0.0
1001
ACAD
1010
0.0
1020
0.0
1030
0.0
  0
LINE
  5
315F
330
1F
100
AcDbEntity
  8
0
  6
ByBlock
 48
4.0
100
AcDbLine
 10
6324.549126463957
 20
2639.50105234347
 30
0.0
 11
6404.549126463956
 21
2719.501052343469
 31
0.0
1001
ACAD
1010
0.0
1020
0.0
1030
0.0
  0
LINE
  5
3160
330
1F
100
AcDbEntity
  8
0
  6
ByBlock
 48
4.0
100
AcDbLine
 10
6324.549126463957
 20
2526.363967353622
 30
0.0
 11
6404.549126463958
 21
2606.363967353622
 31
0.0
1001
ACAD
1010
0.0
1020
0.0
1030
0.0
  0
LINE
  5
3161
330
1F
100
AcDbEntity
  8
0
  6
ByBlock
 48
4.0
100
AcDbLine
 10
5105.366750227968
 20
1194.044506127785
 30
0.0
 11
5160.129111929028
 21
1248.806867828844
 31
0.0
1001
ACAD
1010
0.0
1020
0.0
1030
0.0
  0
LINE
  5
3162
330
1F
100
AcDbEntity
  8
0
  6
ByBlock
 48
4.0
100
AcDbLine
 10
5848.094687380203
 20
1936.772443280018
 30
0.0
 11
6404.549126463956
 21
2493.226882363773
 31
0.0
1001
ACAD
1010
0.0
1020
0.0
1030
0.0
  0
LINE
  5
3163
330
1F
100
AcDbEntity
  8
0
  6
ByBlock
 48
4.0
100
AcDbLine
 10
5141.920943822015
 20
1117.461614731985
 30
0.0
 11
5270.06187758845
 21
1245.602548498418
 31
0.0
1001
ACAD
1010
0.0
1020
0.0
1030
0.0
  0
LINE
  5
3164
330
1F
100
AcDbEntity
  8
0
  6
ByBlock
 48
4.0
100
AcDbLine
 10
5915.952249482756
 20
1891.492920392725
 30
0.0
 11
6404.549126463958
 21
2380.089797373926
 31
0.0
1001
ACAD
1010
0.0
1020
0.0
1030
0.0
  0
LINE
  5
3165
330
1F
100
AcDbEntity
  8
0
  6
ByBlock
 48
4.0
100
AcDbLine
 10
5183.906057306785
 20
1046.309643226906
 30
0.0
 11
5336.403281908723
 21
1198.806867828845
 31
0.0
1001
ACAD
1010
0.0
1020
0.0
1030
0.0
  0
LINE
  5
3166
330
1F
100
AcDbEntity
  8
0
  6
ByBlock
 48
4.0
100
AcDbLine
 10
5949.54912646396
 20
1811.95271238408
 30
0.0
 11
6404.549126463956
 21
2266.952712384077
 31
0.0
1001
ACAD
1010
0.0
1020
0.0
1030
0.0
  0
LINE
  5
3167
330
1F
100
AcDbEntity
  8
0
  6
ByBlock
 48
4.0
100
AcDbLine
 10
5237.095776561785
 20
986.3622774920592
 30
0.0
 11
5449.54036689857
 21
1198.806867828845
 31
0.0
1001
ACAD
1010
0.0
1020
0.0
1030
0.0
  0
LINE
  5
3168
330
1F
100
AcDbEntity
  8
0
  6
ByBlock
 48
4.0
100
AcDbLine
 10
5949.549126463959
 20
1698.815627394233
 30
0.0
 11
6404.549126463956
 21
2153.81562739423
 31
0.0
1001
ACAD
1010
0.0
1020
0.0
1030
0.0
  0
LINE
  5
3169
330
1F
100
AcDbEntity
  8
0
  6
ByBlock
 48
4.0
100
AcDbLine
 10
5306.232443467119
 20
942.3618594075449
 30
0.0
 11
5562.677451888419
 21
1198.806867828845
 31
0.0
1001
ACAD
1010
0.0
1020
0.0
1030
0.0
  0
LINE
  5
316A
330
1F
100
AcDbEntity
  8
0
  6
ByBlock
 48
4.0
100
AcDbLine
 10
5949.549126463959
 20
1585.678542404385
 30
0.0
 11
6404.549126463956
 21
2040.678542404384
 31
0.0
1001
ACAD
1010
0.0
1020
0.0
1030
0.0
  0
LINE
  5
316B
330
1F
100
AcDbEntity
  8
0
  6
ByBlock
 48
4.0
100
AcDbLine
 10
5392.092830931459
 20
915.0851618820375
 30
0.0
 11
5675.814536878266
 21
1198.806867828844
 31
0.0
1001
ACAD
1010
0.0
1020
0.0
1030
0.0
  0
LINE
  5
316C
330
1F
100
AcDbEntity
  8
0
  6
ByBlock
 48
4.0
100
AcDbLine
 10
5949.549126463959
 20
1472.541457414537
 30
0.0
 11
6404.549126463958
 21
1927.541457414535
 31
0.0
1001
ACAD
1010
0.0
1020
0.0
1030
0.0
  0
LINE
  5
316D
330
1F
100
AcDbEntity
  8
0
  6
ByBlock
 48
4.0
100
AcDbLine
 10
5495.825621829574
 20
905.6808677903056
 30
0.0
 11
5788.951621868114
 21
1198.806867828844
 31
0.0
1001
ACAD
1010
0.0
1020
0.0
1030
0.0
  0
LINE
  5
316E
330
1F
100
AcDbEntity
  8
0
  6
ByBlock
 48
4.0
100
AcDbLine
 10
5949.54912646396
 20
1359.40437242469
 30
0.0
 11
6404.549126463958
 21
1814.404372424687
 31
0.0
1001
ACAD
1010
0.0
1020
0.0
1030
0.0
  0
LINE
  5
316F
330
1F
100
AcDbEntity
  8
0
  6
ByBlock
 48
4.0
100
AcDbLine
 10
5620.577347050616
 20
917.2955080214999
 30
0.0
 11
5902.08870685796
 21
1198.806867828844
 31
0.0
1001
ACAD
1010
0.0
1020
0.0
1030
0.0
  0
LINE
  5
3170
330
1F
100
AcDbEntity
  8
0
  6
ByBlock
 48
4.0
100
AcDbLine
 10
5949.549126463959
 20
1246.267287434842
 30
0.0
 11
6404.549126463956
 21
1701.26728743484
 31
0.0
1001
ACAD
1010
0.0
1020
0.0
1030
0.0
  0
LINE
  5
3171
330
1F
100
AcDbEntity
  8
0
  6
ByBlock
 48
4.0
100
AcDbLine
 10
5775.259285107569
 20
958.8403610886045
 30
0.0
 11
6404.549126463958
 21
1588.130202444993
 31
0.0
1001
ACAD
1010
0.0
1020
0.0
1030
0.0
  0
LINE
  5
3172
330
1F
100
AcDbEntity
  8
0
  6
ByBlock
 48
4.0
100
AcDbLine
 10
6016.16096268146
 20
1086.604953672649
 30
0.0
 11
6404.549126463956
 21
1474.993117455146
 31
0.0
1001
ACAD
1010
0.0
1020
0.0
1030
0.0
  0
LINE
  5
3174
330
1F
100
AcDbEntity
  8
0
  6
ByBlock
 48
0.5
100
AcDbLine
 10
6404.549126463958
 20
2778.512996422441
 30
0.0
 11
6404.549126463958
 21
1380.078458286972
 31
0.0
  0
SPLINE
  5
3175
330
1F
100
AcDbEntity
  8
0
  6
ByBlock
 48
0.5
100
AcDbSpline
210
0.0
220
0.0
230
1.0
 70
     8
 71
     3
 72
    11
 73
     7
 74
     0
 42
0.0000000001
 43
0.0000000001
 40
3318.168595200017
 40
3318.168595200017
 40
3318.168595200017
 40
3318.168595200017
 40
3434.707458440993
 40
3893.497610045934
 40
4612.35092692485
 40
4847.327904134955
 40
4847.327904134955
 40
4847.327904134955
 40
4847.327904134955
 10
6404.549126463959
 20
1380.078458286973
 30
0.0
 10
6369.991744996
 20
1360.891066376965
 30
0.0
 10
6203.252333938216
 20
1262.968624714954
 30
0.0
 10
5934.540272485101
 20
946.0448047977575
 30
0.0
 10
5276.918192645042
 20
819.7823468278878
 30
0.0
 10
5137.523534187145
 20
1123.889731650845
 30
0.0
 10
5103.183530848339
 20
1198.806867828844
 30
0.0
  0
LINE
  5
3177
330
1F
100
AcDbEntity
  8
0
  6
ByBlock
 48
0.5
100
AcDbLine
 10
6154.549126463958
 20
2767.171954564255
 30
0.0
 11
6154.549126463958
 21
2568.53378863743
 31
0.0
  0
CIRCLE
  5
31D6
330
1F
100
AcDbEntity
  8
0
  6
ByBlock
 48
0.5
370
    20
100
AcDbCircle
 10
7316.005659539566
 20
1823.840498809398
 30
0.0
 40
25.0
  0
CIRCLE
  5
31D7
330
1F
100
AcDbEntity
  8
0
  6
ByBlock
 48
0.5
370
    20
100
AcDbCircle
 10
7695.494468635152
 20
1804.136596373213
 30
0.0
 40
25.0
  0
LINE
  5
31D8
330
1F
100
AcDbEntity
  8
0
  6
ByBlock
 48
0.5
370
    20
100
AcDbLine
 10
7317.301968910368
 20
1848.806867828844
 30
0.0
 11
7696.790778005953
 21
1829.10296539266
 31
0.0
  0
LINE
  5
31D9
330
1F
100
AcDbEntity
  8
0
  6
ByBlock
 48
0.5
370
    20
100
AcDbLine
 10
7314.709350168765
 20
1798.874129789951
 30
0.0
 11
7694.19815926435
 21
1779.170227353767
 31
0.0
  0
LINE
  5
31DB
330
1F
100
AcDbEntity
  8
0
  6
ByBlock
 48
0.5
370
    20
100
AcDbLine
 10
7342.268337929815
 20
1847.510558458042
 30
0.0
 11
7507.046373458161
 21
1838.954916610752
 31
0.0
  0
LINE
  5
31DC
330
1F
100
AcDbEntity
  8
0
  6
ByBlock
 48
0.5
370
    20
100
AcDbLine
 10
7671.824408986506
 20
1830.399274763461
 30
0.0
 11
7507.046373458161
 21
1838.954916610752
 31
0.0
  0
LINE
  5
31DD
330
1F
100
AcDbEntity
  8
0
  6
ByBlock
 48
0.5
370
    20
100
AcDbLine
 10
7671.824408986506
 20
1830.399274763461
 30
0.0
 11
7507.046373458161
 21
1838.954916610753
 31
0.0
  0
LINE
  5
31DE
330
1F
100
AcDbEntity
  8
0
  6
ByBlock
 48
0.5
370
    20
100
AcDbLine
 10
7671.291784578243
 20
1810.399988780003
 30
0.0
 11
7340.726867344796
 21
1827.563654010387
 31
0.0
  0
CIRCLE
  5
31DF
330
1F
100
AcDbEntity
  8
0
  6
ByBlock
 48
0.5
370
    20
100
AcDbCircle
 10
7316.005659539566
 20
1823.840498809398
 30
0.0
 40
15.0
  0
CIRCLE
  5
31E0
330
1F
100
AcDbEntity
  8
0
  6
ByBlock
 48
0.5
370
    20
100
AcDbCircle
 10
7316.005659539566
 20
1823.840498809398
 30
0.0
 40
12.5
  0
CIRCLE
  5
31E1
330
1F
100
AcDbEntity
  8
0
  6
ByBlock
 48
0.5
370
    20
100
AcDbCircle
 10
7695.494468635152
 20
1804.136596373213
 30
0.0
 40
15.0
  0
CIRCLE
  5
31E2
330
1F
100
AcDbEntity
  8
0
  6
ByBlock
 48
0.5
370
    20
100
AcDbCircle
 10
7695.494468635152
 20
1804.136596373213
 30
0.0
 40
12.5
  0
LINE
  5
31E3
330
1F
100
AcDbEntity
  8
0
  6
ByBlock
 48
4.0
100
AcDbLine
 10
7090.082209829144
 20
2001.375778706778
 30
0.0
 11
7161.302970799282
 21
2072.596539676917
 31
0.0
1001
ACAD
1010
0.0
1020
0.0
1030
0.0
  0
LINE
  5
31E4
330
1F
100
AcDbEntity
  8
0
  6
ByBlock
 48
4.0
100
AcDbLine
 10
7074.127312799456
 20
1872.283796687241
 30
0.0
 11
7375.732014215543
 21
2173.888498103329
 31
0.0
1001
ACAD
1010
0.0
1020
0.0
1030
0.0
  0
LINE
  5
31E5
330
1F
100
AcDbEntity
  8
0
  6
ByBlock
 48
4.0
100
AcDbLine
 10
7074.127312799454
 20
1759.146711697393
 30
0.0
 11
7997.354761059586
 21
2682.374159957525
 31
0.0
1001
ACAD
1010
0.0
1020
0.0
1030
0.0
  0
LINE
  5
31E6
330
1F
100
AcDbEntity
  8
0
  6
ByBlock
 48
4.0
100
AcDbLine
 10
7163.30720211971
 20
1735.1895160278
 30
0.0
 11
7241.005659539566
 21
1812.887973447656
 31
0.0
1001
ACAD
1010
0.0
1020
0.0
1030
0.0
  0
LINE
  5
31E7
330
1F
100
AcDbEntity
  8
0
  6
ByBlock
 48
4.0
100
AcDbLine
 10
7358.561095773898
 20
1930.443409681987
 30
0.0
 11
8125.492908415075
 21
2697.375222323166
 31
0.0
1001
ACAD
1010
0.0
1020
0.0
1030
0.0
  0
LINE
  5
31E8
330
1F
100
AcDbEntity
  8
0
  6
ByBlock
 48
4.0
100
AcDbLine
 10
8015.603145181637
 20
2474.348374099881
 30
0.0
 11
8125.492908415074
 21
2584.238137333318
 31
0.0
1001
ACAD
1010
0.0
1020
0.0
1030
0.0
  0
LINE
  5
31E9
330
1F
100
AcDbEntity
  8
0
  6
ByBlock
 48
4.0
100
AcDbLine
 10
8295.492908415074
 20
2754.238137333317
 30
0.0
 11
8324.175772774742
 21
2782.921001692985
 31
0.0
1001
ACAD
1010
0.0
1020
0.0
1030
0.0
  0
LINE
  5
31EA
330
1F
100
AcDbEntity
  8
0
  6
ByBlock
 48
4.0
100
AcDbLine
 10
8295.492908415075
 20
2641.10105234347
 30
0.0
 11
8375.492908415075
 21
2721.101052343469
 31
0.0
1001
ACAD
1010
0.0
1020
0.0
1030
0.0
  0
LINE
  5
31EB
330
1F
100
AcDbEntity
  8
0
  6
ByBlock
 48
4.0
100
AcDbLine
 10
8295.492908415074
 20
2527.963967353622
 30
0.0
 11
8375.492908415074
 21
2607.963967353622
 31
0.0
1001
ACAD
1010
0.0
1020
0.0
1030
0.0
  0
LINE
  5
31EC
330
1F
100
AcDbEntity
  8
0
  6
ByBlock
 48
4.0
100
AcDbLine
 10
7075.807540694126
 20
1195.141514642826
 30
0.0
 11
7129.472893880145
 21
1248.806867828845
 31
0.0
1001
ACAD
1010
0.0
1020
0.0
1030
0.0
  0
LINE
  5
31ED
330
1F
100
AcDbEntity
  8
0
  6
ByBlock
 48
4.0
100
AcDbLine
 10
8185.21132480844
 20
2304.545298757141
 30
0.0
 11
8375.492908415074
 21
2494.826882363774
 31
0.0
1001
ACAD
1010
0.0
1020
0.0
1030
0.0
  0
LINE
  5
31EE
330
1F
100
AcDbEntity
  8
0
  6
ByBlock
 48
4.0
100
AcDbLine
 10
7112.322436307192
 20
1118.519325266045
 30
0.0
 11
7241.005659539566
 21
1247.202548498419
 31
0.0
1001
ACAD
1010
0.0
1020
0.0
1030
0.0
  0
LINE
  5
31EF
330
1F
100
AcDbEntity
  8
0
  6
ByBlock
 48
4.0
100
AcDbLine
 10
7920.492908415075
 20
1926.689797373928
 30
0.0
 11
8375.492908415074
 21
2381.689797373927
 31
0.0
1001
ACAD
1010
0.0
1020
0.0
1030
0.0
  0
LINE
  5
31F0
330
1F
100
AcDbEntity
  8
0
  6
ByBlock
 48
4.0
100
AcDbLine
 10
7154.192807139171
 20
1047.252611108176
 30
0.0
 11
7305.74706385984
 21
1198.806867828845
 31
0.0
1001
ACAD
1010
0.0
1020
0.0
1030
0.0
  0
LINE
  5
31F1
330
1F
100
AcDbEntity
  8
0
  6
ByBlock
 48
4.0
100
AcDbLine
 10
7920.492908415075
 20
1813.55271238408
 30
0.0
 11
8375.492908415074
 21
2268.552712384078
 31
0.0
1001
ACAD
1010
0.0
1020
0.0
1030
0.0
  0
LINE
  5
31F2
330
1F
100
AcDbEntity
  8
0
  6
ByBlock
 48
4.0
100
AcDbLine
 10
7207.180221784959
 20
987.1029407641174
 30
0.0
 11
7418.884148849688
 21
1198.806867828845
 31
0.0
1001
ACAD
1010
0.0
1020
0.0
1030
0.0
  0
LINE
  5
31F3
330
1F
100
AcDbEntity
  8
0
  6
ByBlock
 48
4.0
100
AcDbLine
 10
7920.492908415075
 20
1700.415627394232
 30
0.0
 11
8375.492908415072
 21
2155.415627394231
 31
0.0
1001
ACAD
1010
0.0
1020
0.0
1030
0.0
  0
LINE
  5
31F4
330
1F
100
AcDbEntity
  8
0
  6
ByBlock
 48
4.0
100
AcDbLine
 10
7276.08316288407
 20
942.86879687338
 30
0.0
 11
7532.021233839536
 21
1198.806867828845
 31
0.0
1001
ACAD
1010
0.0
1020
0.0
1030
0.0
  0
LINE
  5
31F5
330
1F
100
AcDbEntity
  8
0
  6
ByBlock
 48
4.0
100
AcDbLine
 10
7920.492908415075
 20
1587.278542404385
 30
0.0
 11
8375.492908415074
 21
2042.278542404383
 31
0.0
1001
ACAD
1010
0.0
1020
0.0
1030
0.0
  0
LINE
  5
31F6
330
1F
100
AcDbEntity
  8
0
  6
ByBlock
 48
4.0
100
AcDbLine
 10
7361.702094324012
 20
915.3506433234744
 30
0.0
 11
7645.158318829382
 21
1198.806867828845
 31
0.0
1001
ACAD
1010
0.0
1020
0.0
1030
0.0
  0
LINE
  5
31F7
330
1F
100
AcDbEntity
  8
0
  6
ByBlock
 48
4.0
100
AcDbLine
 10
7920.492908415075
 20
1474.141457414537
 30
0.0
 11
8375.492908415074
 21
1929.141457414536
 31
0.0
1001
ACAD
1010
0.0
1020
0.0
1030
0.0
  0
LINE
  5
31F8
330
1F
100
AcDbEntity
  8
0
  6
ByBlock
 48
4.0
100
AcDbLine
 10
7465.166954169383
 20
905.6784181789986
 30
0.0
 11
7758.295403819229
 21
1198.806867828845
 31
0.0
1001
ACAD
1010
0.0
1020
0.0
1030
0.0
  0
LINE
  5
31F9
330
1F
100
AcDbEntity
  8
0
  6
ByBlock
 48
4.0
100
AcDbLine
 10
7920.492908415075
 20
1361.00437242469
 30
0.0
 11
8375.492908415074
 21
1816.004372424688
 31
0.0
1001
ACAD
1010
0.0
1020
0.0
1030
0.0
  0
LINE
  5
31FA
330
1F
100
AcDbEntity
  8
0
  6
ByBlock
 48
4.0
100
AcDbLine
 10
7589.582098074078
 20
916.956477093845
 30
0.0
 11
7871.432488809078
 21
1198.806867828845
 31
0.0
1001
ACAD
1010
0.0
1020
0.0
1030
0.0
  0
LINE
  5
31FB
330
1F
100
AcDbEntity
  8
0
  6
ByBlock
 48
4.0
100
AcDbLine
 10
7920.492908415075
 20
1247.867287434842
 30
0.0
 11
8375.492908415075
 21
1702.867287434841
 31
0.0
1001
ACAD
1010
0.0
1020
0.0
1030
0.0
  0
LINE
  5
31FC
330
1F
100
AcDbEntity
  8
0
  6
ByBlock
 48
4.0
100
AcDbLine
 10
7743.708569134558
 20
957.9458631644778
 30
0.0
 11
8375.492908415074
 21
1589.730202444992
 31
0.0
1001
ACAD
1010
0.0
1020
0.0
1030
0.0
  0
LINE
  5
31FD
330
1F
100
AcDbEntity
  8
0
  6
ByBlock
 48
4.0
100
AcDbLine
 10
7981.25157890818
 20
1082.351787948252
 30
0.0
 11
8375.492908415074
 21
1476.593117455146
 31
0.0
1001
ACAD
1010
0.0
1020
0.0
1030
0.0
  0
LINE
  5
31FE
330
1F
100
AcDbEntity
  8
0
  6
ByBlock
 48
4.0
100
AcDbLine
 10
7088.33823676766
 20
1998.031805645293
 30
0.0
 11
7165.745797212204
 21
2075.439366089838
 31
0.0
1001
ACAD
1010
0.0
1020
0.0
1030
0.0
  0
LINE
  5
31FF
330
1F
100
AcDbEntity
  8
0
  6
ByBlock
 48
4.0
100
AcDbLine
 10
7074.127312799456
 20
1870.683796687241
 30
0.0
 11
7378.748640285317
 21
2175.305124173103
 31
0.0
1001
ACAD
1010
0.0
1020
0.0
1030
0.0
  0
LINE
  5
3200
330
1F
100
AcDbEntity
  8
0
  6
ByBlock
 48
4.0
100
AcDbLine
 10
7074.127312799456
 20
1757.546711697393
 30
0.0
 11
8000.150718299662
 21
2683.5701171976
 31
0.0
1001
ACAD
1010
0.0
1020
0.0
1030
0.0
  0
LINE
  5
3201
330
1F
100
AcDbEntity
  8
0
  6
ByBlock
 48
4.0
100
AcDbLine
 10
7164.90720211971
 20
1735.1895160278
 30
0.0
 11
7241.005659539566
 21
1811.287973447656
 31
0.0
1001
ACAD
1010
0.0
1020
0.0
1030
0.0
  0
LINE
  5
3202
330
1F
100
AcDbEntity
  8
0
  6
ByBlock
 48
4.0
100
AcDbLine
 10
7360.750238212585
 20
1931.032552120674
 30
0.0
 11
8125.492908415075
 21
2695.775222323165
 31
0.0
1001
ACAD
1010
0.0
1020
0.0
1030
0.0
  0
LINE
  5
3203
330
1F
100
AcDbEntity
  8
0
  6
ByBlock
 48
4.0
100
AcDbLine
 10
8026.799000837828
 20
2483.94422975607
 30
0.0
 11
8125.492908415074
 21
2582.638137333317
 31
0.0
1001
ACAD
1010
0.0
1020
0.0
1030
0.0
  0
LINE
  5
3204
330
1F
100
AcDbEntity
  8
0
  6
ByBlock
 48
4.0
100
AcDbLine
 10
8295.492908415075
 20
2752.638137333317
 30
0.0
 11
8325.709699452552
 21
2782.854928370796
 31
0.0
1001
ACAD
1010
0.0
1020
0.0
1030
0.0
  0
LINE
  5
3205
330
1F
100
AcDbEntity
  8
0
  6
ByBlock
 48
4.0
100
AcDbLine
 10
8295.492908415075
 20
2639.50105234347
 30
0.0
 11
8375.492908415074
 21
2719.501052343469
 31
0.0
1001
ACAD
1010
0.0
1020
0.0
1030
0.0
  0
LINE
  5
3206
330
1F
100
AcDbEntity
  8
0
  6
ByBlock
 48
4.0
100
AcDbLine
 10
8295.492908415075
 20
2526.363967353622
 30
0.0
 11
8375.492908415075
 21
2606.363967353622
 31
0.0
1001
ACAD
1010
0.0
1020
0.0
1030
0.0
  0
LINE
  5
3207
330
1F
100
AcDbEntity
  8
0
  6
ByBlock
 48
4.0
100
AcDbLine
 10
7076.310532179086
 20
1194.044506127785
 30
0.0
 11
7131.072893880144
 21
1248.806867828844
 31
0.0
1001
ACAD
1010
0.0
1020
0.0
1030
0.0
  0
LINE
  5
3208
330
1F
100
AcDbEntity
  8
0
  6
ByBlock
 48
4.0
100
AcDbLine
 10
7819.038469331319
 20
1936.772443280018
 30
0.0
 11
8375.492908415074
 21
2493.226882363773
 31
0.0
1001
ACAD
1010
0.0
1020
0.0
1030
0.0
  0
LINE
  5
3209
330
1F
100
AcDbEntity
  8
0
  6
ByBlock
 48
4.0
100
AcDbLine
 10
7112.864725773133
 20
1117.461614731985
 30
0.0
 11
7241.005659539566
 21
1245.602548498418
 31
0.0
1001
ACAD
1010
0.0
1020
0.0
1030
0.0
  0
LINE
  5
320A
330
1F
100
AcDbEntity
  8
0
  6
ByBlock
 48
4.0
100
AcDbLine
 10
7886.896031433874
 20
1891.492920392725
 30
0.0
 11
8375.492908415075
 21
2380.089797373926
 31
0.0
1001
ACAD
1010
0.0
1020
0.0
1030
0.0
  0
LINE
  5
320B
330
1F
100
AcDbEntity
  8
0
  6
ByBlock
 48
4.0
100
AcDbLine
 10
7154.849839257902
 20
1046.309643226906
 30
0.0
 11
7307.347063859841
 21
1198.806867828845
 31
0.0
1001
ACAD
1010
0.0
1020
0.0
1030
0.0
  0
LINE
  5
320C
330
1F
100
AcDbEntity
  8
0
  6
ByBlock
 48
4.0
100
AcDbLine
 10
7920.492908415076
 20
1811.95271238408
 30
0.0
 11
8375.492908415072
 21
2266.952712384077
 31
0.0
1001
ACAD
1010
0.0
1020
0.0
1030
0.0
  0
LINE
  5
320D
330
1F
100
AcDbEntity
  8
0
  6
ByBlock
 48
4.0
100
AcDbLine
 10
7208.039558512902
 20
986.3622774920592
 30
0.0
 11
7420.484148849688
 21
1198.806867828845
 31
0.0
1001
ACAD
1010
0.0
1020
0.0
1030
0.0
  0
LINE
  5
320E
330
1F
100
AcDbEntity
  8
0
  6
ByBlock
 48
4.0
100
AcDbLine
 10
7920.492908415075
 20
1698.815627394233
 30
0.0
 11
8375.492908415074
 21
2153.81562739423
 31
0.0
1001
ACAD
1010
0.0
1020
0.0
1030
0.0
  0
LINE
  5
320F
330
1F
100
AcDbEntity
  8
0
  6
ByBlock
 48
4.0
100
AcDbLine
 10
7277.176225418236
 20
942.3618594075449
 30
0.0
 11
7533.621233839536
 21
1198.806867828845
 31
0.0
1001
ACAD
1010
0.0
1020
0.0
1030
0.0
  0
LINE
  5
3210
330
1F
100
AcDbEntity
  8
0
  6
ByBlock
 48
4.0
100
AcDbLine
 10
7920.492908415075
 20
1585.678542404385
 30
0.0
 11
8375.492908415074
 21
2040.678542404384
 31
0.0
1001
ACAD
1010
0.0
1020
0.0
1030
0.0
  0
LINE
  5
3211
330
1F
100
AcDbEntity
  8
0
  6
ByBlock
 48
4.0
100
AcDbLine
 10
7363.036612882575
 20
915.0851618820375
 30
0.0
 11
7646.758318829381
 21
1198.806867828844
 31
0.0
1001
ACAD
1010
0.0
1020
0.0
1030
0.0
  0
LINE
  5
3212
330
1F
100
AcDbEntity
  8
0
  6
ByBlock
 48
4.0
100
AcDbLine
 10
7920.492908415075
 20
1472.541457414537
 30
0.0
 11
8375.492908415075
 21
1927.541457414535
 31
0.0
1001
ACAD
1010
0.0
1020
0.0
1030
0.0
  0
LINE
  5
3213
330
1F
100
AcDbEntity
  8
0
  6
ByBlock
 48
4.0
100
AcDbLine
 10
7466.769403780691
 20
905.6808677903056
 30
0.0
 11
7759.89540381923
 21
1198.806867828844
 31
0.0
1001
ACAD
1010
0.0
1020
0.0
1030
0.0
  0
LINE
  5
3214
330
1F
100
AcDbEntity
  8
0
  6
ByBlock
 48
4.0
100
AcDbLine
 10
7920.492908415076
 20
1359.40437242469
 30
0.0
 11
8375.492908415075
 21
1814.404372424687
 31
0.0
1001
ACAD
1010
0.0
1020
0.0
1030
0.0
  0
LINE
  5
3215
330
1F
100
AcDbEntity
  8
0
  6
ByBlock
 48
4.0
100
AcDbLine
 10
7591.521129001733
 20
917.2955080214999
 30
0.0
 11
7873.032488809077
 21
1198.806867828844
 31
0.0
1001
ACAD
1010
0.0
1020
0.0
1030
0.0
  0
LINE
  5
3216
330
1F
100
AcDbEntity
  8
0
  6
ByBlock
 48
4.0
100
AcDbLine
 10
7920.492908415075
 20
1246.267287434842
 30
0.0
 11
8375.492908415074
 21
1701.26728743484
 31
0.0
1001
ACAD
1010
0.0
1020
0.0
1030
0.0
  0
LINE
  5
3217
330
1F
100
AcDbEntity
  8
0
  6
ByBlock
 48
4.0
100
AcDbLine
 10
7746.203067058686
 20
958.8403610886045
 30
0.0
 11
8375.492908415075
 21
1588.130202444993
 31
0.0
1001
ACAD
1010
0.0
1020
0.0
1030
0.0
  0
LINE
  5
3218
330
1F
100
AcDbEntity
  8
0
  6
ByBlock
 48
4.0
100
AcDbLine
 10
7987.104744632578
 20
1086.604953672649
 30
0.0
 11
8375.492908415074
 21
1474.993117455146
 31
0.0
1001
ACAD
1010
0.0
1020
0.0
1030
0.0
  0
LINE
  5
3219
330
1F
100
AcDbEntity
  8
0
  6
ByBlock
 62
     1
 48
0.5
100
AcDbLine
 10
7241.005659539566
 20
1898.806867828844
 30
0.0
 11
7241.005659539566
 21
1735.1895160278
 31
0.0
  0
LINE
  5
321A
330
1F
100
AcDbEntity
  8
0
  6
ByBlock
 48
0.5
100
AcDbLine
 10
7241.005659539566
 20
1735.1895160278
 30
0.0
 11
7074.127312799456
 21
1735.1895160278
 31
0.0
  0
LINE
  5
321B
330
1F
100
AcDbEntity
  8
0
  6
ByBlock
 48
0.5
100
AcDbLine
 10
7074.127312799456
 20
1735.1895160278
 30
0.0
 11
7074.127312799456
 21
1735.1895160278
 31
0.0
  0
LINE
  5
321C
330
1F
100
AcDbEntity
  8
0
  6
ByBlock
 48
0.5
100
AcDbLine
 10
7074.127312799456
 20
1735.1895160278
 30
0.0
 11
7074.127312799456
 21
1936.702306418843
 31
0.0
  0
LINE
  5
321D
330
1F
100
AcDbEntity
  8
0
  6
ByBlock
 62
     1
 48
0.5
100
AcDbLine
 10
7241.005659539566
 20
1198.806867828844
 30
0.0
 11
7920.492908415075
 21
1198.806867828844
 31
0.0
  0
LINE
  5
321E
330
1F
100
AcDbEntity
  8
0
  6
ByBlock
 48
0.5
100
AcDbLine
 10
7074.127312799456
 20
1248.806867828844
 30
0.0
 11
7241.005659539566
 21
1248.806867828844
 31
0.0
  0
LINE
  5
321F
330
1F
100
AcDbEntity
  8
0
  6
ByBlock
 62
     1
 48
0.5
100
AcDbLine
 10
7241.005659539566
 20
1248.806867828844
 30
0.0
 11
7241.005659539566
 21
1198.806867828844
 31
0.0
  0
LINE
  5
3220
330
1F
100
AcDbEntity
  8
0
  6
ByBlock
 48
0.5
100
AcDbLine
 10
7074.127312799456
 20
1198.806867828844
 30
0.0
 11
7074.127312799456
 21
1248.806867828844
 31
0.0
  0
LINE
  5
3221
330
1F
100
AcDbEntity
  8
0
  6
ByBlock
 62
     1
 48
0.5
100
AcDbLine
 10
7241.005659539566
 20
1898.806867828844
 30
0.0
 11
7391.282488218923
 21
1939.249397178105
 31
0.0
  0
LINE
  5
3222
330
1F
100
AcDbEntity
  8
0
  6
ByBlock
 62
     1
 48
0.5
100
AcDbLine
 10
7920.492908415075
 20
1869.074629592462
 30
0.0
 11
7920.492908415075
 21
1198.806867828844
 31
0.0
  0
LINE
  5
3223
330
1F
100
AcDbEntity
  8
0
  6
ByBlock
 48
0.5
100
AcDbLine
 10
8145.492908415075
 20
2767.171954564255
 30
0.0
 11
8145.492908415075
 21
2585.675588158369
 31
0.0
  0
LINE
  5
3224
330
1F
100
AcDbEntity
  8
0
  6
ByBlock
 48
0.5
100
AcDbLine
 10
8125.492908415074
 20
2767.171954564255
 30
0.0
 11
8125.492908415074
 21
2568.53378863743
 31
0.0
  0
LINE
  5
3225
330
1F
100
AcDbEntity
  8
0
  6
ByBlock
 48
0.5
100
AcDbLine
 10
8375.492908415075
 20
2778.512996422441
 30
0.0
 11
8375.492908415075
 21
1380.078458286972
 31
0.0
  0
LINE
  5
3226
330
1F
100
AcDbEntity
  8
0
  6
ByBlock
 48
0.5
100
AcDbLine
 10
8295.492908415075
 20
2783.4611612511
 30
0.0
 11
8295.492908415075
 21
2450.830411432566
 31
0.0
  0
LINE
  5
3227
330
1F
100
AcDbEntity
  8
0
 48
4.0
370
    50
100
AcDbLine
 10
7910.900801593143
 20
1334.247177440561
 30
0.0
 11
7734.219695484957
 21
1757.445043136726
 31
0.0
  0
CIRCLE
  5
3228
330
1F
100
AcDbEntity
  8
0
  6
ByBlock
 48
0.5
100
AcDbCircle
 10
7734.219695484957
 20
1757.445043136726
 30
0.0
 40
9.550586806426508
  0
SPLINE
  5
3229
330
1F
100
AcDbEntity
  8
0
  6
ByBlock
 48
0.5
100
AcDbSpline
210
0.0
220
0.0
230
1.0
 70
     8
 71
     3
 72
    10
 73
     6
 74
     0
 42
0.0000000001
 43
0.0000000001
 40
0.0
 40
0.0
 40
0.0
 40
0.0
 40
456.3997745208902
 40
968.6658504963057
 40
1268.844566654258
 40
1268.844566654258
 40
1268.844566654258
 40
1268.844566654258
 10
7074.127312799456
 20
1936.702306418843
 30
0.0
 10
7074.127312799456
 20
2088.835564592474
 30
0.0
 10
7547.16612816
 20
2157.413071528388
 30
0.0
 10
7701.452302147565
 20
2570.02679348273
 30
0.0
 10
8031.102440749537
 20
2698.41756270905
 30
0.0
 10
8125.492908415075
 20
2731.829852716906
 30
0.0
  0
SPLINE
  5
322A
330
1F
100
AcDbEntity
  8
0
  6
ByBlock
 48
0.5
100
AcDbSpline
210
0.0
220
0.0
230
1.0
 70
     8
 71
     3
 72
    11
 73
     7
 74
     0
 42
0.0000000001
 43
0.0000000001
 40
3318.168595200017
 40
3318.168595200017
 40
3318.168595200017
 40
3318.168595200017
 40
3434.707458440993
 40
3893.497610045934
 40
4612.35092692485
 40
4847.327904134955
 40
4847.327904134955
 40
4847.327904134955
 40
4847.327904134955
 10
8375.492908415075
 20
1380.078458286973
 30
0.0
 10
8340.935526947117
 20
1360.891066376965
 30
0.0
 10
8174.196115889333
 20
1262.968624714954
 30
0.0
 10
7905.484054436218
 20
946.0448047977575
 30
0.0
 10
7247.861974596159
 20
819.7823468278878
 30
0.0
 10
7108.467316138261
 20
1123.889731650845
 30
0.0
 10
7074.127312799456
 20
1198.806867828844
 30
0.0
  0
LINE
  5
322B
330
1F
100
AcDbEntity
  8
0
  6
ByBlock
 62
     1
 48
4.0
100
AcDbLine
 10
7920.492908415075
 20
1869.074629592462
 30
0.0
 11
7749.70220093772
 21
1983.038667034163
 31
0.0
  0
LINE
  5
322C
330
1F
100
AcDbEntity
  8
0
  6
ByBlock
 62
     1
 48
4.0
100
AcDbLine
 10
7749.70220093772
 20
1983.038667034163
 30
0.0
 11
8285.492908415076
 21
2450.830411432566
 31
0.0
  0
LINE
  5
322D
330
1F
100
AcDbEntity
  8
0
  6
ByBlock
 62
     1
 48
4.0
100
AcDbLine
 10
7391.282488218923
 20
1939.249397178105
 30
0.0
 11
8145.492908415075
 21
2585.675588158369
 31
0.0
  0
SPLINE
  5
322E
330
1F
100
AcDbEntity
  8
0
  6
ByBlock
 62
     6
 48
4.0
100
AcDbSpline
210
0.0
220
0.0
230
1.0
 70
     8
 71
     3
 72
    14
 73
    10
 74
     8
 42
0.0000000001
 43
0.0000000001
 44
0.0000000001
 40
0.0
 40
0.0
 40
0.0
 40
0.0
 40
515.2420734905127
 40
1083.18223911817
 40
1472.310583365228
 40
1766.201611646124
 40
2164.436276730666
 40
2556.427330851474
 40
2745.501915898537
 40
2745.501915898537
 40
2745.501915898537
 40
2745.501915898537
 10
4761.146321450525
 20
1385.32579183317
 30
0.0
 10
4922.048922607261
 20
1444.797413072375
 30
0.0
 10
5260.310972172007
 20
1569.823312881888
 30
0.0
 10
5870.451347932221
 20
1194.33306477123
 30
0.0
 10
5971.130083521972
 20
1804.836193838352
 30
0.0
 10
5522.344972037687
 20
2016.561160546816
 30
0.0
 10
5982.841128766506
 20
2290.941299574857
 30
0.0
 10
6280.529101046155
 20
2455.05026379665
 30
0.0
 10
6259.039985171662
 20
2660.456479965311
 30
0.0
 10
6252.047581227735
 20
2727.294187222955
 30
0.0
 11
4761.146321450525
 21
1385.32579183317
 31
0.0
 11
5268.8835977091
 21
1472.945724453133
 31
0.0
 11
5832.010382137013
 21
1399.160520021291
 31
0.0
 11
5868.93673480359
 21
1786.532838050343
 31
0.0
 11
5670.457620466534
 21
2003.276875283159
 31
0.0
 11
5961.252606054767
 21
2275.359812696986
 31
0.0
 11
6252.047581227735
 21
2538.219602175891
 31
0.0
 11
6252.047581227735
 21
2727.294187222955
 31
0.0
  0
SPLINE
  5
322F
330
1F
100
AcDbEntity
  8
0
  6
ByBlock
 62
     6
 48
4.0
100
AcDbSpline
210
0.0
220
0.0
230
1.0
 70
     8
 71
     3
 72
    14
 73
    10
 74
     8
 42
0.0000000001
 43
0.0000000001
 44
0.0000000001
 40
0.0
 40
0.0
 40
0.0
 40
0.0
 40
421.1412288058173
 40
756.0599646156851
 40
1024.215717570255
 40
1259.732636761972
 40
1557.270640647827
 40
2356.017431168558
 40
2771.059205573851
 40
2771.059205573851
 40
2771.059205573851
 40
2771.059205573851
 10
6842.869140570842
 20
1311.54059159182
 30
0.0
 10
6979.616613104733
 20
1360.769877392284
 30
0.0
 10
7225.114517782522
 20
1449.149474388511
 30
0.0
 10
7580.29634961596
 20
1226.07535143194
 30
0.0
 10
7813.301604637906
 20
1619.069705359413
 30
0.0
 10
7408.875237926174
 20
1683.899984305431
 30
0.0
 10
7716.922259936335
 20
2225.106870654344
 30
0.0
 10
8304.448391770121
 20
2326.918567184833
 30
0.0
 10
8243.747404411596
 20
2773.044144270053
 30
0.0
 10
8222.991363178852
 20
2925.591924395432
 30
0.0
 11
6842.869140570842
 21
1311.54059159182
 31
0.0
 11
7258.290545578242
 21
1380.714219960954
 31
0.0
 11
7590.627667501107
 21
1339.210039587081
 31
0.0
 11
7710.638292836953
 21
1579.011952942942
 31
0.0
 11
7516.774972583218
 21
1712.747633618502
 31
0.0
 11
7613.706637917715
 21
1994.053723157744
 31
0.0
 11
8222.991363178852
 21
2510.550149990139
 31
0.0
 11
8222.991363178852
 21
2925.591924395432
 31
0.0
  0
LINE
  5
3230
330
1F
100
AcDbEntity
  8
0
  6
ByBlock
 62
     6
 48
4.0
100
AcDbLine
 10
6058.166435467257
 20
2332.16844763954
 30
0.0
 11
5970.783070575308
 21
2300.437153211069
 31
0.0
  0
LINE
  5
3231
330
1F
100
AcDbEntity
  8
0
  6
ByBlock
 62
     6
 48
4.0
100
AcDbLine
 10
5970.783070575308
 20
2300.437153211069
 30
0.0
 11
5979.256371021818
 21
2285.740767855665
 31
0.0
  0
LINE
  5
3232
330
1F
100
AcDbEntity
  8
0
  6
ByBlock
 62
     6
 48
4.0
100
AcDbLine
 10
6058.166435467257
 20
2332.168447639541
 30
0.0
 11
5986.923482351855
 21
2272.442664787053
 31
0.0
  0
LINE
  5
3233
330
1F
100
AcDbEntity
  8
0
  6
ByBlock
 62
     6
 48
4.0
100
AcDbLine
 10
5986.923482351855
 20
2272.442664787053
 30
0.0
 11
5978.450181905344
 21
2287.139050142457
 31
0.0
  0
LINE
  5
323E
330
1F
100
AcDbEntity
  8
0
  6
ByBlock
 62
     6
 48
4.0
100
AcDbLine
 10
7654.162050234636
 20
2037.333593379192
 30
0.0
 11
7581.254648511614
 21
1979.651375322463
 31
0.0
  0
LINE
  5
323F
330
1F
100
AcDbEntity
  8
0
  6
ByBlock
 62
     6
 48
4.0
100
AcDbLine
 10
7581.254648511614
 20
1979.651375322463
 30
0.0
 11
7593.932218854035
 21
1968.379295958639
 31
0.0
  0
LINE
  5
3240
330
1F
100
AcDbEntity
  8
0
  6
ByBlock
 62
     6
 48
4.0
100
AcDbLine
 10
7654.162050234635
 20
2037.333593379192
 30
0.0
 11
7605.403586336318
 21
1958.179694522456
 31
0.0
  0
LINE
  5
3241
330
1F
100
AcDbEntity
  8
0
  6
ByBlock
 62
     6
 48
4.0
100
AcDbLine
 10
7605.403586336318
 20
1958.179694522456
 30
0.0
 11
7592.726015993896
 21
1969.451773886279
 31
0.0
  0
LINE
  5
3242
330
1F
100
AcDbEntity
  8
0
  6
ByBlock
 62
     1
 48
0.5
100
AcDbLine
 10
6184.549126463958
 20
2767.171954564255
 30
0.0
 11
6184.549126463958
 21
2585.675588158369
 31
0.0
  0
LINE
  5
3243
330
1F
100
AcDbEntity
  8
0
  6
ByBlock
 62
     1
 48
0.5
100
AcDbLine
 10
6314.549126463958
 20
2783.4611612511
 30
0.0
 11
6314.549126463958
 21
2450.830411432566
 31
0.0
  0
LINE
  5
3244
330
1F
100
AcDbEntity
  8
0
  6
ByBlock
 62
     1
 48
0.5
100
AcDbLine
 10
8155.492908415075
 20
2767.171954564255
 30
0.0
 11
8155.492908415075
 21
2585.675588158369
 31
0.0
  0
LINE
  5
3245
330
1F
100
AcDbEntity
  8
0
  6
ByBlock
 62
     1
 48
0.5
100
AcDbLine
 10
8285.492908415076
 20
2783.4611612511
 30
0.0
 11
8285.492908415076
 21
2450.830411432566
 31
0.0
  0
LINE
  5
3246
330
1F
100
AcDbEntity
  8
0
  6
ByBlock
 62
     1
 48
4.0
100
AcDbLine
 10
8145.492908415075
 20
2585.675588158369
 30
0.0
 11
8155.492908415075
 21
2585.675588158369
 31
0.0
  0
LINE
  5
3247
330
1F
100
AcDbEntity
  8
0
  6
ByBlock
 48
4.0
100
AcDbLine
 10
8285.492908415076
 20
2450.830411432566
 30
0.0
 11
8295.492908415075
 21
2450.830411432566
 31
0.0
  0
LINE
  5
3248
330
1F
100
AcDbEntity
  8
0
  6
ByBlock
 62
     1
 48
4.0
100
AcDbLine
 10
6174.549126463958
 20
2585.675588158369
 30
0.0
 11
6184.549126463958
 21
2585.675588158369
 31
0.0
  0
LINE
  5
3249
330
1F
100
AcDbEntity
  8
0
  6
ByBlock
 48
4.0
100
AcDbLine
 10
6314.549126463958
 20
2450.830411432566
 30
0.0
 11
6324.549126463957
 21
2450.830411432566
 31
0.0
  0
LINE
  5
324A
330
1F
100
AcDbEntity
  8
0
  6
ByBlock
 48
4.0
100
AcDbLine
 10
2823.973486029603
 20
340.9618813889029
 30
0.0
 11
2823.973486029604
 21
310.9618813889028
 31
0.0
  0
LINE
  5
324E
330
1F
100
AcDbEntity
  8
0
  6
ByBlock
 48
4.0
100
AcDbLine
 10
3071.07428251121
 20
2056.650733728496
 30
0.0
 11
3566.049029341793
 21
1561.675986897911
 31
0.0
  0
LINE
  5
324F
330
1F
100
AcDbEntity
  8
0
  6
ByBlock
 48
4.0
100
AcDbLine
 10
3071.07428251121
 20
2056.650733728496
 30
0.0
 11
3566.049029341794
 21
2551.625480559078
 31
0.0
  0
LINE
  5
3250
330
1F
100
AcDbEntity
  8
0
  6
ByBlock
 48
4.0
100
AcDbLine
 10
3566.049029341793
 20
1561.675986897911
 30
0.0
 11
4061.023776172375
 21
2056.650733728495
 31
0.0
  0
LINE
  5
3251
330
1F
100
AcDbEntity
  8
0
  6
ByBlock
 48
4.0
100
AcDbLine
 10
3566.049029341794
 20
2551.625480559078
 30
0.0
 11
4061.023776172375
 21
2056.650733728495
 31
0.0
  0
LINE
  5
3252
330
1F
100
AcDbEntity
  8
0
  6
ByBlock
 48
4.0
100
AcDbLine
 10
2429.505475497224
 20
1990.210488675684
 30
0.0
 11
2783.058866090498
 21
1636.65709808241
 31
0.0
  0
LINE
  5
3253
330
1F
100
AcDbEntity
  8
0
  6
ByBlock
 48
4.0
100
AcDbLine
 10
2783.058866090498
 20
1636.65709808241
 30
0.0
 11
2783.058866090498
 21
1636.65709808241
 31
0.0
  0
LINE
  5
3254
330
1F
100
AcDbEntity
  8
0
  6
ByBlock
 48
4.0
100
AcDbLine
 10
2783.058866090498
 20
1636.65709808241
 30
0.0
 11
2995.190900446461
 21
1848.789132438374
 31
0.0
  0
LINE
  5
3255
330
1F
100
AcDbEntity
  8
0
  6
ByBlock
 48
4.0
100
AcDbLine
 10
2429.505475497224
 20
1990.210488675684
 30
0.0
 11
2641.637509853189
 21
2202.342523031648
 31
0.0
  0
LINE
  5
3256
330
1F
100
AcDbEntity
  8
0
  6
ByBlock
 48
4.0
100
AcDbLine
 10
2641.637509853189
 20
2202.342523031648
 30
0.0
 11
2995.190900446461
 21
1848.789132438374
 31
0.0
  0
CIRCLE
  5
3257
330
1F
100
AcDbEntity
  8
0
  6
ByBlock
 48
4.0
100
AcDbCircle
 10
3705.144934510102
 20
1185.934528668492
 30
0.0
 40
300.0
  0
LINE
  5
3258
330
1F
100
AcDbEntity
  8
0
  6
ByBlock
 62
     1
 48
4.0
100
AcDbLine
 10
2188.899131377235
 20
2107.61732670031
 30
0.0
 11
2284.391788844022
 21
2091.227538017277
 31
0.0
  0
LINE
  5
3259
330
1F
100
AcDbEntity
  8
0
  6
ByBlock
 62
     1
 48
4.0
100
AcDbLine
 10
2206.738457603176
 20
2256.17203620111
 30
0.0
 11
2373.045581449634
 21
2236.728135009016
 31
0.0
  0
DIMENSION
  5
325A
102
{ACAD_XDICTIONARY
360
3267
102
}
102
{ACAD_REACTORS
330
3271
102
}
330
1F
100
AcDbEntity
  8
0
  6
ByBlock
 48
4.0
100
AcDbDimension
  2
*D17
 10
2377.684156668212
 20
986.5753577792798
 30
0.0
 11
2152.684156668212
 21
1007.20035777928
 31
0.0
 70
    32
 71
     5
 42
450.0
  3
ISO-25
100
AcDbAlignedDimension
 13
1927.684156668212
 23
1143.886868933333
 33
0.0
 14
2377.684156668212
 24
1143.886868933333
 34
0.0
100
AcDbRotatedDimension
1001
ACAD
1000
DSTYLE
1002
{
1070
   140
1040
40.0
1070
    41
1040
30.0
1070
    49
1040
0.18
1070
    50
1040
1.570796326794896
1002
}
  0
DIMENSION
  5
3272
102
{ACAD_XDICTIONARY
360
327F
102
}
102
{ACAD_REACTORS
330
3289
102
}
330
1F
100
AcDbEntity
  8
0
  6
ByBlock
 48
4.0
100
AcDbDimension
  2
*D18
 10
1807.677084438694
 20
1573.886868933333
 30
0.0
 11
1787.052084438693
 21
1358.574368933333
 31
0.0
 70
    32
  1
430
 71
     5
 42
430.6249999999997
  3
ISO-25
100
AcDbAlignedDimension
 13
1927.684156668212
 23
1143.261868933333
 33
0.0
 14
1927.684156668212
 24
1573.886868933333
 34
0.0
 50
90.0
100
AcDbRotatedDimension
1001
ACAD
1000
DSTYLE
1002
{
1070
   140
1040
40.0
1070
    41
1040
30.0
1070
    49
1040
0.18
1070
    50
1040
1.570796326794896
1002
}
  0
ARC
  5
32B9
330
1F
100
AcDbEntity
  8
0
  6
ByBlock
 48
4.0
100
AcDbCircle
 10
2217.188406351185
 20
3201.66264035679
 30
0.0
 40
2316.293695633175
100
AcDbArc
 50
246.385861623689
 51
291.7776082516559
  0
DIMENSION
  5
32BA
330
1F
100
AcDbEntity
  8
0
  6
ByBlock
 48
4.0
100
AcDbDimension
  2
*D19
 10
1565.872693316026
 20
722.4608765603375
 30
0.0
 11
1690.27599933222
 21
784.374008083622
 31
0.0
 70
    36
 71
     5
 42
25.00000000000227
  3
ISO-25
100
AcDbRadialDimension
 15
1588.254097696752
 25
733.599670837391
 35
0.0
 40
0.0
1001
ACAD_DSTYLE_DIMRADIAL_EXTENSION
1070
   387
1070
     1
1070
   388
1040
0.0
1070
   390
1040
0.0
1001
ACAD
1000
DSTYLE
1002
{
1070
   140
1040
40.0
1070
    41
1040
30.0
1070
    49
1040
0.18
1070
    50
1040
1.570796326794896
1070
   288
1070
     1
1002
}
  0
DIMENSION
  5
32CC
330
1F
100
AcDbEntity
  8
0
  6
ByBlock
 48
4.0
100
AcDbDimension
  2
*D20
 10
1565.872693316028
 20
722.4608765603402
 30
0.0
 11
1491.133579931082
 21
821.4290901015717
 31
0.0
 70
    36
 71
     5
 42
14.99999999999795
  3
ISO-25
100
AcDbRadialDimension
 15
1554.968216881164
 25
732.7609927578126
 35
0.0
 40
0.0
1001
ACAD_DSTYLE_DIMRADIAL_EXTENSION
1070
   387
1070
     1
1070
   388
1040
0.0
1070
   390
1040
0.0
1001
ACAD
1000
DSTYLE
1002
{
1070
   140
1040
40.0
1070
    41
1040
30.0
1070
    49
1040
0.18
1070
    50
1040
1.570796326794896
1070
   288
1070
     1
1002
}
  0
DIMENSION
  5
32DE
330
1F
100
AcDbEntity
  8
0
  6
ByBlock
 48
4.0
100
AcDbDimension
  2
*D21
 10
2331.033707260216
 20
335.9618813889028
 30
0.0
 11
2415.476725388547
 21
424.4188111654282
 31
0.0
 70
    36
 71
     5
 42
14.99999999999863
  3
ISO-25
100
AcDbRadialDimension
 15
2341.391283589414
 25
346.8117944108949
 35
0.0
 40
0.0
1001
ACAD_DSTYLE_DIMRADIAL_EXTENSION
1070
   387
1070
     1
1070
   388
1040
0.0
1070
   390
1040
0.0
1001
ACAD
1000
DSTYLE
1002
{
1070
   140
1040
40.0
1070
    41
1040
30.0
1070
    49
1040
0.18
1070
    50
1040
1.570796326794896
1070
   288
1070
     1
1002
}
  0
MTEXT
  5
337E
102
{ACAD_XDICTIONARY
360
353E
102
}
330
1F
100
AcDbEntity
  8
0
100
AcDbMText
 10
3320.259711341582
 20
2060.02909810244
 30
0.0
 40
50.0
 41
0.0
 71
     1
 72
     5
  1
\U+0413\U+0430\U+0437\U+043E\U+0432\U+044B\U+0439 \U+0414\U+0438\U+0442\U+0440\U+0438\U+0445 42\U+041A\U+0432\U+0442 
  7
style1
 73
     1
 44
1.0
1001
ACAD
1000
MTEXTBEGIN
1070
    73
1070
     1
1070
    44
1040
1.0
1070
    74
1070
     0
1000
MTEXTEND
1000
ACAD_MTEXT_DEFINED_HEIGHT_BEGIN
1070
    46
1040
1.788507355375425E+99
1000
ACAD_MTEXT_DEFINED_HEIGHT_END
  0
MTEXT
  5
3386
102
{ACAD_XDICTIONARY
360
3540
102
}
330
1F
100
AcDbEntity
  8
0
100
AcDbMText
 10
2706.345120978375
 20
2309.999986609527
 30
0.0
 40
50.0
 41
0.0
 71
     1
 72
     5
  1
\U+0420\U+0435\U+0437\U+0435\U+0440\U+043D\U+044B\U+0439 \U+044D\U+043B\U+0435\U+043A\U+0442\U+0440\U+043E\U+043A\U+043E\U+0442\U+0451\U+043B 22,5\U+043A\U+0412\U+0442 
  7
style1
 73
     1
 44
1.0
1001
ACAD
1000
MTEXTBEGIN
1070
    73
1070
     1
1070
    44
1040
1.0
1070
    74
1070
     0
1000
MTEXTEND
1000
ACAD_MTEXT_DEFINED_HEIGHT_BEGIN
1070
    46
1040
1.788507355375425E+99
1000
ACAD_MTEXT_DEFINED_HEIGHT_END
  0
MTEXT
  5
338E
102
{ACAD_XDICTIONARY
360
3542
102
}
330
1F
100
AcDbEntity
  8
0
100
AcDbMText
 10
2390.365959342636
 20
835.5797217669502
 30
0.0
 40
50.0
 41
0.0
 71
     1
 72
     5
  1
\U+041A\U+0410\U+041C\U+0418\U+041D
  7
style1
 73
     1
 44
1.0
1001
ACAD
1000
MTEXTBEGIN
1070
    73
1070
     1
1070
    44
1040
1.0
1070
    74
1070
     0
1000
MTEXTEND
1000
ACAD_MTEXT_DEFINED_HEIGHT_BEGIN
1070
    46
1040
1.788507355375425E+99
1000
ACAD_MTEXT_DEFINED_HEIGHT_END
  0
MTEXT
  5
3396
102
{ACAD_XDICTIONARY
360
3544
102
}
330
1F
100
AcDbEntity
  8
0
100
AcDbMText
 10
5326.551173475674
 20
657.2640952106976
 30
0.0
 40
50.0
 41
0.0
 71
     1
 72
     5
  1
\U+0412\U+0430\U+0440.1. \U+041F\U+043E\U+0432\U+0441\U+0435\U+0434\U+043D\U+0435\U+0432\U+043D\U+043E\U+0435 \U+0438\U+0441\U+043F\U+043E\U+043B\U+044C\U+0437\U+043E\U+0432\U+0430\U+043D\U+0438\U+0435
  7
style1
 73
     1
 44
1.0
1001
ACAD
1000
MTEXTBEGIN
1070
    73
1070
     1
1070
    44
1040
1.0
1070
    74
1070
     0
1000
MTEXTEND
1000
ACAD_MTEXT_DEFINED_HEIGHT_BEGIN
1070
    46
1040
1.788507355375425E+99
1000
ACAD_MTEXT_DEFINED_HEIGHT_END
  0
MTEXT
  5
33A7
102
{ACAD_XDICTIONARY
360
3546
102
}
330
1F
100
AcDbEntity
  8
0
100
AcDbMText
 10
7155.337067337922
 20
657.2640952106976
 30
0.0
 40
50.0
 41
0.0
 71
     1
 72
     5
  1
\U+0412\U+0430\U+0440.2. \U+041D\U+0435\U+0442 \U+0433\U+0430\U+0437\U+0430 \U+0438 \U+044D\U+043B-\U+0432\U+0430
  7
style1
 73
     1
 44
1.0
1001
ACAD
1000
MTEXTBEGIN
1070
    73
1070
     1
1070
    44
1040
1.0
1070
    74
1070
     0
1000
MTEXTEND
1000
ACAD_MTEXT_DEFINED_HEIGHT_BEGIN
1070
    46
1040
1.788507355375425E+99
1000
ACAD_MTEXT_DEFINED_HEIGHT_END
  0
MTEXT
  5
33B1
102
{ACAD_XDICTIONARY
360
3548
102
}
330
1F
100
AcDbEntity
  8
0
  6
ByBlock
 48
0.5
100
AcDbMText
 10
2160.297857067776
 20
450.7690528493363
 30
0.0
 40
40.0
 41
1.468590392144506
 71
     1
 72
     5
  1
\U+0432\U+0438\U+0434 \U+0410
  7
стиль2
 73
     1
 44
1.0
1001
ACAD
1000
MTEXTBEGIN
1070
    73
1070
     1
1070
    44
1040
1.0
1070
    74
1070
     0
1000
MTEXTEND
  0
LINE
  5
33B2
330
1F
100
AcDbEntity
  8
0
  6
ByBlock
 48
0.5
100
AcDbLine
 10
2149.344826131937
 20
402.6075589795109
 30
0.0
 11
2318.504516810304
 21
402.6075589795109
 31
0.0
  0
MTEXT
  5
3402
102
{ACAD_XDICTIONARY
360
354A
102
}
330
1F
100
AcDbEntity
  8
0
100
AcDbMText
 10
942.5118828976765
 20
2476.89570957027
 30
0.0
 40
50.0
 41
0.0
 71
     1
 72
     5
  1
\U+0422\U+0440\U+0443\U+0431\U+044B d\U+0443=150 - 2\U+0448\U+0442.
  7
style1
 73
     1
 44
1.0
1001
ACAD
1000
MTEXTBEGIN
1070
    73
1070
     1
1070
    44
1040
1.0
1070
    74
1070
     0
1000
MTEXTEND
1000
ACAD_MTEXT_DEFINED_HEIGHT_BEGIN
1070
    46
1040
1.788507355375425E+99
1000
ACAD_MTEXT_DEFINED_HEIGHT_END
  0
LINE
  5
3403
330
1F
100
AcDbEntity
  8
0
  6
ByBlock
 48
4.0
100
AcDbLine
 10
1536.415537075656
 20
2414.728933100597
 30
0.0
 11
2072.47701376849
 21
2260.752098261263
 31
0.0
  0
LINE
  5
3404
330
1F
100
AcDbEntity
  8
0
  6
ByBlock
 48
4.0
100
AcDbLine
 10
1536.415537075656
 20
2414.728933100597
 30
0.0
 11
1982.016642245486
 21
2163.679747593407
 31
0.0
  0
MTEXT
  5
340C
102
{ACAD_XDICTIONARY
360
354C
102
}
330
1F
100
AcDbEntity
  8
0
100
AcDbMText
 10
2606.282752916478
 20
1393.508633872275
 30
0.0
 40
50.0
 41
0.0
 71
     1
 72
     5
  1
\U+0422\U+0440\U+0443\U+0431\U+044B d\U+0443=30 - 2\U+0448\U+0442.
  7
style1
 73
     1
 44
1.0
1001
ACAD
1000
MTEXTBEGIN
1070
    73
1070
     1
1070
    44
1040
1.0
1070
    74
1070
     0
1000
MTEXTEND
1000
ACAD_MTEXT_DEFINED_HEIGHT_BEGIN
1070
    46
1040
1.788507355375425E+99
1000
ACAD_MTEXT_DEFINED_HEIGHT_END
  0
LINE
  5
340D
330
1F
100
AcDbEntity
  8
0
  6
ByBlock
 48
4.0
100
AcDbLine
 10
2600.704172162729
 20
1426.465751539933
 30
0.0
 11
2567.501442249852
 21
1503.867990366807
 31
0.0
  0
LINE
  5
340E
330
1F
100
AcDbEntity
  8
0
  6
ByBlock
 48
4.0
100
AcDbLine
 10
2620.994727017207
 20
1319.576954919631
 30
0.0
 11
2593.32579236665
 21
1210.845243461033
 31
0.0
  0
LWPOLYLINE
  5
340F
330
1F
100
AcDbEntity
  8
0
  6
ByBlock
 48
4.0
100
AcDbPolyline
 90
        4
 70
     1
 43
0.0
 10
467.9140848012994
 20
3198.794129234399
 10
8580.700989913905
 20
3198.794129234399
 10
8580.700989913905
 20
12.38818865579924
 10
467.9140848012994
 20
12.38818865579924
  0
MTEXT
  5
3423
102
{ACAD_XDICTIONARY
360
354E
102
}
330
1F
100
AcDbEntity
  8
0
 62
     1
100
AcDbMText
 10
593.1960484870205
 20
2006.026822490698
 30
0.0
 40
50.0
 41
0.0
 71
     1
 72
     5
  1
\U+041A\U+0440\U+0430\U+0441\U+043D\U+044B\U+043C - \U+043A\U+043E\U+043D\U+0442\U+0443\U+0440\U+044B \U+0442\U+043E\U+043F\U+043A\U+0438 \U+0438 \U+0434\U+044B\U+043C\U+043E\U+0432\U+044B\U+0445 \U+0442\U+0440\U+0443\U+0431.
  7
style1
 73
     1
 44
1.0
1001
ACAD
1000
MTEXTBEGIN
1070
    73
1070
     1
1070
    44
1040
1.0
1070
    74
1070
     0
1000
MTEXTEND
1000
ACAD_MTEXT_DEFINED_HEIGHT_BEGIN
1070
    46
1040
1.788507355375425E+99
1000
ACAD_MTEXT_DEFINED_HEIGHT_END
  0
MTEXT
  5
342C
102
{ACAD_XDICTIONARY
360
3550
102
}
330
1F
100
AcDbEntity
  8
0
100
AcDbMText
 10
6359.59049141997
 20
3053.979026454664
 30
0.0
 40
50.0
 41
0.0
 71
     1
 72
     5
  3
\U+0422\U+0440\U+0443\U+0431\U+044B \U+0430\U+0441\U+0431\U+043E\U+0446\U+0435\U+043C\U+0435\U+043D\U+0442\U+043D\U+044B\U+0435 \U+0432 \U+043C\U+043E\U+043D\U+043E\U+043B\U+0438\U+0442\U+0435 \U+043A\U+043E\U+043B\U+043E\U+043D\U+043D\U+044B h=12\U+
  1
043C,\P\U+043E\U+0431\U+043C\U+043E\U+0442\U+0430\U+043D\U+044B 2-\U+043C\U+044F \U+0441\U+043B\U+043E\U+044F\U+043C\U+0438 \U+0430\U+0441\U+0431\U+0435\U+0441\U+0442\U+043E\U+0440\U+043E\U+0433\U+043E\U+0436\U+0438
  7
style1
 73
     1
 44
1.0
1001
ACAD
1000
MTEXTBEGIN
1070
    73
1070
     1
1070
    44
1040
1.0
1070
    74
1070
     0
1000
MTEXTEND
1000
ACAD_MTEXT_DEFINED_HEIGHT_BEGIN
1070
    46
1040
1.788507355375425E+99
1000
ACAD_MTEXT_DEFINED_HEIGHT_END
  0
ENDSEC
  0
SECTION
  2
OBJECTS
  0
DICTIONARY
  5
C
330
0
100
AcDbDictionary
281
     1
  3
ACAD_2007HEADERVARS_RT
350
3527
  3
ACAD_COLOR
350
6B
  3
ACAD_DATALINK
350
2AA3
  3
ACAD_GROUP
350
D
  3
ACAD_LAYOUT
350
1A
  3
ACAD_MATERIAL
350
6A
  3
ACAD_MLEADERSTYLE
350
12D
  3
ACAD_MLINESTYLE
350
17
  3
ACAD_PLOTSETTINGS
350
19
  3
ACAD_PLOTSTYLENAME
350
E
  3
ACAD_SCALELIST
350
10C
  3
ACAD_TABLESTYLE
350
7E
  3
ACAD_VISUALSTYLE
350
EF
  3
ACDB_RECOMPOSE_DATA
350
15D
  3
AcDbVariableDictionary
350
5E
  3
DWGPROPS
350
3526
  0
DICTIONARY
  5
1280
330
8
100
AcDbDictionary
280
     1
281
     1
  0
DICTIONARY
  5
1701
330
2
100
AcDbDictionary
280
     1
281
     1
  3
ACAD_LAYERSTATES
360
1702
  0
DICTIONARY
  5
13C
330
10
100
AcDbDictionary
280
     1
281
     1
  3
ADSK_XREC_LAYER_RECONCILED
360
DA9
  0
DICTIONARY
  5
1D4
330
1F
100
AcDbDictionary
280
     1
281
     1
  3
ACAD_SORTENTS
360
1D5
  0
DICTIONARY
  5
341
330
32C
100
AcDbDictionary
280
     1
281
     1
  3
ACAD_SORTENTS
360
342
  0
DICTIONARY
  5
382
330
37D
100
AcDbDictionary
280
     1
281
     1
  3
ACAD_SORTENTS
360
383
  0
DICTIONARY
  5
3F8
330
3E0
100
AcDbDictionary
280
     1
281
     1
  3
ACAD_SORTENTS
360
3F9
  0
DICTIONARY
  5
406
330
404
100
AcDbDictionary
280
     1
281
     1
  3
ACAD_SORTENTS
360
407
  0
DICTIONARY
  5
454
330
44F
100
AcDbDictionary
280
     1
281
     1
  3
ACAD_SORTENTS
360
455
  0
DICTIONARY
  5
ACA
330
AC7
100
AcDbDictionary
280
     1
281
     1
  3
ACAD_SORTENTS
360
ACB
  0
DICTIONARY
  5
C29
330
C27
100
AcDbDictionary
280
     1
281
     1
  3
ACAD_SORTENTS
360
C2A
  0
DICTIONARY
  5
CCD
330
CCA
100
AcDbDictionary
280
     1
281
     1
  3
ACAD_SORTENTS
360
CCE
  0
DICTIONARY
  5
154B
330
1542
100
AcDbDictionary
280
     1
281
     1
  3
ACAD_SORTENTS
360
154C
  0
DICTIONARY
  5
15E5
330
15E2
100
AcDbDictionary
280
     1
281
     1
  3
ACAD_SORTENTS
360
15E6
  0
DICTIONARY
  5
163D
330
163B
100
AcDbDictionary
280
     1
281
     1
  3
ACAD_SORTENTS
360
163E
  0
DICTIONARY
  5
1A6E
330
1A67
100
AcDbDictionary
280
     1
281
     1
  3
ACAD_SORTENTS
360
1A6F
  0
DICTIONARY
  5
1D6F
330
1D68
100
AcDbDictionary
280
     1
281
     1
  3
ACAD_SORTENTS
360
1D70
  0
DICTIONARY
  5
2899
330
2896
100
AcDbDictionary
280
     1
281
     1
  3
ACAD_SORTENTS
360
289A
  0
DICTIONARY
  5
2D85
330
2D83
100
AcDbDictionary
280
     1
281
     1
  3
ACAD_SORTENTS
360
2D86
  0
DICTIONARY
  5
3373
330
336E
100
AcDbDictionary
280
     1
281
     1
  3
ACAD_SORTENTS
360
3374
  0
DICTIONARY
  5
3538
330
2897
100
AcDbDictionary
280
     1
281
     1
  3
ACAD_MTEXT_RT
360
3539
  0
DICTIONARY
  5
353A
330
2898
100
AcDbDictionary
280
     1
281
     1
  3
ACAD_MTEXT_RT
360
353B
  0
DICTIONARY
  5
3536
330
257E
100
AcDbDictionary
280
     1
281
     1
  3
ACAD_MTEXT_RT
360
3537
  0
DICTIONARY
  5
353C
330
2FF8
100
AcDbDictionary
280
     1
281
     1
  3
ACAD_MTEXT_RT
360
353D
  0
DICTIONARY
  5
3267
330
325A
100
AcDbDictionary
280
     1
281
     1
  3
ACAD_DIMASSOC
360
3271
  0
DICTIONARY
  5
327F
330
3272
100
AcDbDictionary
280
     1
281
     1
  3
ACAD_DIMASSOC
360
3289
  0
DICTIONARY
  5
353E
330
337E
100
AcDbDictionary
280
     1
281
     1
  3
ACAD_MTEXT_RT
360
353F
  0
DICTIONARY
  5
3540
330
3386
100
AcDbDictionary
280
     1
281
     1
  3
ACAD_MTEXT_RT
360
3541
  0
DICTIONARY
  5
3542
330
338E
100
AcDbDictionary
280
     1
281
     1
  3
ACAD_MTEXT_RT
360
3543
  0
DICTIONARY
  5
3544
330
3396
100
AcDbDictionary
280
     1
281
     1
  3
ACAD_MTEXT_RT
360
3545
  0
DICTIONARY
  5
3546
330
33A7
100
AcDbDictionary
280
     1
281
     1
  3
ACAD_MTEXT_RT
360
3547
  0
DICTIONARY
  5
3548
330
33B1
100
AcDbDictionary
280
     1
281
     1
  3
ACAD_MTEXT_RT
360
3549
  0
DICTIONARY
  5
354A
330
3402
100
AcDbDictionary
280
     1
281
     1
  3
ACAD_MTEXT_RT
360
354B
  0
DICTIONARY
  5
354C
330
340C
100
AcDbDictionary
280
     1
281
     1
  3
ACAD_MTEXT_RT
360
354D
  0
DICTIONARY
  5
354E
330
3423
100
AcDbDictionary
280
     1
281
     1
  3
ACAD_MTEXT_RT
360
354F
  0
DICTIONARY
  5
3550
330
342C
100
AcDbDictionary
280
     1
281
     1
  3
ACAD_MTEXT_RT
360
3551
  0
DICTIONARY
  5
3527
102
{ACAD_REACTORS
330
C
102
}
330
C
100
AcDbDictionary
281
     1
  3
DIMFXL
350
3528
  3
DIMJOGANG
350
3529
  0
DICTIONARY
  5
6B
102
{ACAD_REACTORS
330
C
102
}
330
C
100
AcDbDictionary
281
     1
  0
DICTIONARY
  5
2AA3
102
{ACAD_REACTORS
330
C
102
}
330
C
100
AcDbDictionary
280
     1
281
     1
  3
св1
360
2AA4
  0
DICTIONARY
  5
D
102
{ACAD_REACTORS
330
C
102
}
330
C
100
AcDbDictionary
281
     1
  0
DICTIONARY
  5
1A
102
{ACAD_REACTORS
330
C
102
}
330
C
100
AcDbDictionary
281
     1
  3
Model
350
22
  3
Лист1
350
D3
  3
Лист2
350
D7
  0
DICTIONARY
  5
6A
102
{ACAD_REACTORS
330
C
102
}
330
C
100
AcDbDictionary
281
     1
  3
ByBlock
350
ED
  3
ByLayer
350
EC
  3
Global
350
EE
  0
DICTIONARY
  5
12D
102
{ACAD_REACTORS
330
C
102
}
330
C
100
AcDbDictionary
281
     1
  3
Standard
350
12E
  3
Аннотативный
350
13B
  0
DICTIONARY
  5
17
102
{ACAD_REACTORS
330
C
102
}
330
C
100
AcDbDictionary
281
     1
  3
Standard
350
18
  0
DICTIONARY
  5
19
102
{ACAD_REACTORS
330
C
102
}
330
C
100
AcDbDictionary
281
     1
  0
ACDBDICTIONARYWDFLT
  5
E
102
{ACAD_REACTORS
330
C
102
}
330
C
100
AcDbDictionary
281
     1
  3
Normal
350
F
100
AcDbDictionaryWithDefault
340
F
  0
DICTIONARY
  5
10C
102
{ACAD_REACTORS
330
C
102
}
330
C
100
AcDbDictionary
281
     1
  3
A0
350
10D
  3
A1
350
188
  3
A2
350
189
  3
A3
350
18A
  3
A4
350
18B
  3
A5
350
18C
  3
A6
350
18D
  3
A7
350
18E
  3
A8
350
18F
  3
A9
350
190
  3
B0
350
191
  3
B1
350
192
  3
B2
350
193
  3
B3
350
194
  3
B4
350
195
  3
B5
350
196
  3
B6
350
197
  3
B7
350
198
  3
B8
350
199
  3
B9
350
19A
  3
C0
350
19B
  3
C1
350
19C
  3
C2
350
19D
  3
C3
350
19E
  3
C4
350
19F
  3
C5
350
1A0
  3
C6
350
1A1
  3
C7
350
1A2
  3
C8
350
1A3
  3
C9
350
1A4
  3
D0
350
1A5
  3
D1
350
1A6
  3
D2
350
1A7
  0
DICTIONARY
  5
7E
102
{ACAD_REACTORS
330
C
102
}
330
C
100
AcDbDictionary
281
     1
  3
Standard
350
7F
  0
DICTIONARY
  5
EF
102
{ACAD_REACTORS
330
C
102
}
330
C
100
AcDbDictionary
281
     1
  3
2dWireframe
350
F5
  3
3D Hidden
350
F7
  3
3dWireframe
350
F6
  3
Basic
350
F4
  3
Brighten
350
FB
  3
ColorChange
350
FF
  3
Conceptual
350
F8
  3
Dim
350
FA
  3
Facepattern
350
FE
  3
Flat
350
F0
  3
FlatWithEdges
350
F1
  3
Gouraud
350
F2
  3
GouraudWithEdges
350
F3
  3
Linepattern
350
FD
  3
Realistic
350
F9
  3
Thicken
350
FC
  0
XRECORD
  5
15D
102
{ACAD_REACTORS
330
C
102
}
330
C
100
AcDbXrecord
280
     1
 90
        1
330
7F
  0
DICTIONARY
  5
5E
102
{ACAD_REACTORS
330
C
102
}
330
C
100
AcDbDictionary
281
     1
  3
CANNOSCALE
350
146
  3
CMLEADERSTYLE
350
145
  3
CTABLESTYLE
350
84
  3
DIMASSOC
350
5F
  3
HIDETEXT
350
63
  3
INDEXCTL
350
29B6
  3
LIGHTINGUNITS
350
128C
  3
MSLTSCALE
350
128B
  3
PSOLHEIGHT
350
3524
  3
PSOLWIDTH
350
3523
  3
SORTENTS
350
29B5
  0
XRECORD
  5
3526
102
{ACAD_REACTORS
330
C
102
}
330
C
100
AcDbXrecord
280
     1
  1
DWGPROPS COOKIE
  2

  3

  4

  6

  7

  8
Валера
  9

300
=
301
=
302
=
303
=
304
=
305
=
306
=
307
=
308
=
309
=
 40
0.6797189814814815
 41
2454708.089863114
 42
2454987.586914421
  1

 90
        0
  0
DICTIONARY
  5
1702
102
{ACAD_REACTORS
330
1701
102
}
330
1701
100
AcDbDictionary
281
     1
  0
XRECORD
  5
DA9
102
{ACAD_REACTORS
330
13C
102
}
330
13C
100
AcDbXrecord
280
     1
290
     1
  0
SORTENTSTABLE
  5
1D5
102
{ACAD_REACTORS
330
1D4
102
}
330
1D4
100
AcDbSortentsTable
330
1F
331
31EE
  5
31F0
331
315F
  5
3144
331
322D
  5
3231
331
31F6
  5
31F8
331
2CAC
  5
2D14
331
2EC8
  5
2F2F
331
2F08
  5
2E1F
331
2E0B
  5
2E0B
331
2FF5
  5
2FFF
331
2EA1
  5
2EA9
331
2E13
  5
2E13
331
2FFD
  5
3011
331
2F30
  5
2ECC
331
2FBE
  5
2FC5
331
3099
  5
315B
331
301B
  5
3034
331
3023
  5
303D
331
3167
  5
314C
331
31FE
  5
3200
331
316F
  5
3154
331
30A9
  5
315F
331
3138
  5
30AE
331
3206
  5
3208
331
320E
  5
3210
331
3033
  5
3065
331
3177
  5
316B
331
3245
  5
322A
331
31D7
  5
31D9
331
3216
  5
3218
331
2EA9
  5
2EB1
331
2E1B
  5
2E23
331
2E6A
  5
2E81
331
2F38
  5
2F70
331
2EB1
  5
2ED7
331
2E23
  5
2E3C
331
2E72
  5
2E8F
331
2F40
  5
2F78
331
2FC6
  5
2FE5
331
2EB9
  5
2F10
331
2D34
  5
2CB8
331
2F48
  5
2F80
331
2EC1
  5
2F28
331
2F50
  5
2F88
331
2FE6
  5
2FED
331
2FEE
  5
2FF5
331
30B9
  5
3165
331
3148
  5
3102
331
31DF
  5
31E1
331
308A
  5
3094
331
3150
  5
3135
331
321E
  5
3220
331
3255
  5
3256
331
3092
  5
2E16
331
31E7
  5
31E9
331
3226
  5
3229
331
31EF
  5
31F1
331
3101
  5
3171
331
322E
  5
3232
331
31F7
  5
31F9
331
257E
  5
258C
331
2EC9
  5
2F30
331
2F58
  5
2F90
331
2F09
  5
2E20
331
2E53
  5
2E6D
331
2E0C
  5
2E0C
331
2E9A
  5
2EA3
331
2F60
  5
2F98
331
2F68
  5
2FA0
331
2EA2
  5
2EAA
331
2E14
  5
2E14
331
2F11
  5
2F68
331
2FFE
  5
3012
331
2FBF
  5
2FC6
331
309A
  5
315C
331
3160
  5
3145
331
3024
  5
3045
331
3168
  5
314D
331
31FF
  5
3201
331
323E
  5
3242
331
3207
  5
3209
331
30AA
  5
3160
331
302C
  5
304D
331
3139
  5
30B7
331
3170
  5
3155
331
320F
  5
3211
331
3073
  5
306E
331
3141
  5
30D8
331
3246
  5
3246
331
3217
  5
3219
331
324E
  5
324E
331
2EAA
  5
2EC6
331
2E1C
  5
2E24
331
2E6B
  5
2E8C
331
2F70
  5
2FB9
331
2EB2
  5
2F08
331
2E24
  5
2E45
331
2F78
  5
2FBA
331
2FC7
  5
2FE6
331
2EBA
  5
2F11
331
2F80
  5
2FBB
331
2F88
  5
2FBC
331
2CA6
  5
2CA6
331
2E3C
  5
2E60
331
2EC2
  5
2F29
331
2FE7
  5
2FEE
331
2FEF
  5
2FF8
331
31D8
  5
31DB
331
3149
  5
3103
331
31E0
  5
31E2
331
308B
  5
3095
331
3151
  5
3136
331
321F
  5
3221
331
3256
  5
3253
331
3227
  5
322B
331
31E8
  5
31EA
331
3159
  5
313E
331
31F0
  5
31F2
331
3102
  5
3172
331
322F
  5
3233
331
2F90
  5
2FBD
331
2ECA
  5
2F38
331
2F98
  5
2FBE
331
2F0A
  5
2ECA
331
2E9B
  5
2EA4
331
2E0D
  5
2E0D
331
2FFF
  5
3018
331
2EA3
  5
2EAB
331
2E15
  5
2E1B
331
2FA0
  5
2FBF
331
2D1E
  5
2D29
331
3161
  5
3146
331
31F8
  5
31FA
331
3169
  5
314E
331
3200
  5
3202
331
323F
  5
3243
331
3208
  5
320A
331
30AB
  5
315E
331
3171
  5
3156
331
3210
  5
3212
331
3035
  5
3071
331
3142
  5
30DC
331
3247
  5
3247
331
324F
  5
3250
331
2EAB
  5
2EC7
331
2E1D
  5
2E25
331
2FC0
  5
2FC7
331
2EB3
  5
2F09
331
2E25
  5
2E47
331
2FC8
  5
2FE7
331
2EBB
  5
2F22
331
2CA7
  5
2CAB
331
2EC3
  5
2F2A
331
2FE8
  5
2FEF
331
31D9
  5
31DC
331
303D
  5
3072
331
314A
  5
3104
331
3218
  5
321A
331
31E1
  5
31E3
331
3045
  5
3073
331
3152
  5
3137
331
3220
  5
3222
331
31E9
  5
31EB
331
3094
  5
3159
331
304D
  5
3086
331
315A
  5
313F
331
3228
  5
322C
331
3055
  5
3087
331
31F1
  5
31F3
331
2ECB
  5
2F40
331
2E45
  5
2E61
331
2E8C
  5
2E9F
331
2FF0
  5
2FF9
331
2F0B
  5
2ECB
331
2E55
  5
2E6F
331
2CB7
  5
2D1E
331
2E0E
  5
2E0E
331
2E9C
  5
2EA5
331
2FF8
  5
3000
331
2EA4
  5
2EAC
331
2E16
  5
2E1C
331
3000
  5
301D
331
2FB9
  5
2FC0
331
3230
  5
323E
331
3162
  5
3147
331
305D
  5
3088
331
312B
  5
3175
331
31F9
  5
31FB
331
3065
  5
3089
331
316A
  5
314F
331
3201
  5
3203
331
3209
  5
320B
331
30AC
  5
3161
331
306D
  5
308A
331
313B
  5
30B9
331
3172
  5
3157
331
3240
  5
3244
331
3211
  5
3213
331
3143
  5
30DD
331
3248
  5
3248
331
2EAC
  5
2EC8
331
2E1E
  5
2E26
331
2E6D
  5
2E8D
331
2FC1
  5
2FC8
331
2EB4
  5
2F0A
331
2E26
  5
2E53
331
2FC9
  5
2FE8
331
2EBC
  5
2F23
331
2EC4
  5
2F2B
331
2FE9
  5
2FF0
331
3219
  5
321B
331
314B
  5
3115
331
3250
  5
3251
331
31E2
  5
31E4
331
308D
  5
3098
331
30D4
  5
3167
331
3153
  5
3138
331
3221
  5
3223
331
31EA
  5
31EC
331
3095
  5
3097
331
30DC
  5
3170
331
315B
  5
3140
331
3229
  5
322D
331
31F2
  5
31F4
331
2ECC
  5
2F48
331
2E46
  5
2E6A
331
2E8D
  5
2EA0
331
2FF1
  5
2FFA
331
2E9D
  5
2EA6
331
2E0F
  5
2E0F
331
2FF9
  5
3001
331
2EA5
  5
2EAD
331
2E5E
  5
2E72
331
2E17
  5
2E1E
331
3001
  5
3023
331
2FBA
  5
2FC1
331
3231
  5
323F
331
3163
  5
3148
331
31FA
  5
31FC
331
316B
  5
3150
331
3202
  5
3204
331
320A
  5
320C
331
313C
  5
30BA
331
3241
  5
3245
331
3212
  5
3214
331
3144
  5
30DE
331
3249
  5
3249
331
2D20
  5
2D2A
331
2EAD
  5
2EC9
331
2E1F
  5
2E27
331
2FC2
  5
2FC9
331
2EB5
  5
2F0B
331
2E27
  5
2E55
331
2FCA
  5
2FE9
331
2EBD
  5
2F24
331
2E7E
  5
2E9A
331
2EC5
  5
2F2C
331
2FEA
  5
2FF1
331
31DB
  5
31DD
331
3086
  5
308F
331
314C
  5
3116
331
321A
  5
321C
331
3251
  5
324F
331
31E3
  5
31E5
331
308E
  5
3099
331
30D5
  5
316D
331
3154
  5
3139
331
3222
  5
3224
331
31EB
  5
31ED
331
30DD
  5
3166
331
315C
  5
3141
331
322A
  5
322E
331
31F3
  5
31F5
331
2ECD
  5
2F50
331
2E47
  5
2E6B
331
2E8E
  5
2EA1
331
2FF2
  5
2FFB
331
2FFA
  5
3002
331
2F0D
  5
2F58
331
2E10
  5
2E10
331
3002
  5
302C
331
2EA6
  5
2EAE
331
2E5F
  5
2E7E
331
2FBB
  5
2FC2
331
3232
  5
3240
331
3164
  5
3149
331
31FB
  5
31FD
331
316C
  5
3151
331
3135
  5
3177
331
3203
  5
3205
331
3242
  5
3168
331
320B
  5
320D
331
30AE
  5
3162
331
313D
  5
30D3
331
3174
  5
316C
331
3213
  5
3215
331
3145
  5
30DF
331
324A
  5
324A
331
2FC3
  5
2FCA
331
2EAE
  5
2ECD
331
2E20
  5
2E28
331
2D29
  5
2D32
331
2E6F
  5
2E8E
331
2EB6
  5
2F0D
331
2E28
  5
2E5E
331
2FE3
  5
2FEA
331
2EBE
  5
2F25
331
2E7F
  5
2E9B
331
2FEB
  5
2FF2
331
2EC6
  5
2F2D
331
31DC
  5
31DE
331
3087
  5
3090
331
314D
  5
312A
331
321B
  5
321D
331
3252
  5
3252
331
308F
  5
309A
331
31E4
  5
31E6
331
3223
  5
3225
331
31EC
  5
31EE
331
315D
  5
3142
331
322B
  5
322F
331
31F4
  5
31F6
331
2CAA
  5
2CD1
331
2FF3
  5
2FFD
331
2E8F
  5
2EA2
331
2E09
  5
2E09
331
2FFB
  5
3003
331
2F0E
  5
2F60
331
2E9F
  5
2EA7
331
2D12
  5
2D20
331
2E11
  5
2E11
331
3003
  5
302E
331
2EA7
  5
2EAF
331
2E60
  5
2E7F
331
2FBC
  5
2FC3
331
31FC
  5
31FE
331
3165
  5
314A
331
3233
  5
3241
331
316D
  5
3152
331
3136
  5
31D6
331
3204
  5
3206
331
3243
  5
316F
331
313E
  5
30D4
331
3070
  5
306D
331
3175
  5
3173
331
320C
  5
320E
331
3146
  5
30FF
331
30B7
  5
3163
331
3214
  5
3216
331
2E19
  5
2E21
331
2FC4
  5
2FE3
331
2EAF
  5
2ECF
331
2E21
  5
2E29
331
2D2A
  5
2D33
331
2EB7
  5
2F0E
331
2D32
  5
2D34
331
2E29
  5
2E5F
331
2FE4
  5
2FEB
331
2E80
  5
2E9C
331
2EBF
  5
2F26
331
2EC7
  5
2F2E
331
2FEC
  5
2FF3
331
3088
  5
3091
331
314E
  5
312B
331
31DD
  5
31DF
331
321C
  5
321E
331
3253
  5
3254
331
3090
  5
309C
331
3156
  5
313B
331
31E5
  5
31E7
331
3224
  5
3227
331
30DF
  5
3093
331
31ED
  5
31EF
331
322C
  5
3230
331
31F5
  5
31F7
331
2CAB
  5
2D07
331
2E0A
  5
2E0A
331
2FF4
  5
2FFE
331
2EA0
  5
2EA8
331
2E12
  5
2E12
331
2E61
  5
2E80
331
2FBD
  5
2FC4
331
3098
  5
315A
331
30A0
  5
315D
331
3166
  5
314B
331
31FD
  5
31FF
331
316E
  5
3153
331
3137
  5
31D7
331
3205
  5
3207
331
3032
  5
3055
331
3071
  5
3070
331
313F
  5
30D6
331
320D
  5
320F
331
3244
  5
3226
331
3147
  5
3101
331
31D6
  5
31D8
331
3215
  5
3217
331
2EA8
  5
2EB0
331
2E1A
  5
2E22
331
2EB0
  5
2ED0
331
2E22
  5
2E3B
331
2FC5
  5
2FE4
331
2EB8
  5
2F0F
331
2D33
  5
2CA8
331
2EC0
  5
2F27
331
2E81
  5
2E9D
331
2FE5
  5
2FEC
331
2FED
  5
2FF4
331
30B8
  5
3164
331
3089
  5
3092
331
314F
  5
312C
331
31DE
  5
31E0
331
321D
  5
321F
331
3254
  5
3255
331
31E6
  5
31E8
331
3091
  5
30AA
331
3157
  5
313C
331
3225
  5
3228
  0
SORTENTSTABLE
  5
342
102
{ACAD_REACTORS
330
341
102
}
330
341
100
AcDbSortentsTable
330
32C
  0
SORTENTSTABLE
  5
383
102
{ACAD_REACTORS
330
382
102
}
330
382
100
AcDbSortentsTable
330
37D
  0
SORTENTSTABLE
  5
3F9
102
{ACAD_REACTORS
330
3F8
102
}
330
3F8
100
AcDbSortentsTable
330
3E0
  0
SORTENTSTABLE
  5
407
102
{ACAD_REACTORS
330
406
102
}
330
406
100
AcDbSortentsTable
330
404
  0
SORTENTSTABLE
  5
455
102
{ACAD_REACTORS
330
454
102
}
330
454
100
AcDbSortentsTable
330
44F
  0
SORTENTSTABLE
  5
ACB
102
{ACAD_REACTORS
330
ACA
102
}
330
ACA
100
AcDbSortentsTable
330
AC7
  0
SORTENTSTABLE
  5
C2A
102
{ACAD_REACTORS
330
C29
102
}
330
C29
100
AcDbSortentsTable
330
C27
  0
SORTENTSTABLE
  5
CCE
102
{ACAD_REACTORS
330
CCD
102
}
330
CCD
100
AcDbSortentsTable
330
CCA
  0
SORTENTSTABLE
  5
154C
102
{ACAD_REACTORS
330
154B
102
}
330
154B
100
AcDbSortentsTable
330
1542
  0
SORTENTSTABLE
  5
15E6
102
{ACAD_REACTORS
330
15E5
102
}
330
15E5
100
AcDbSortentsTable
330
15E2
  0
SORTENTSTABLE
  5
163E
102
{ACAD_REACTORS
330
163D
102
}
330
163D
100
AcDbSortentsTable
330
163B
  0
SORTENTSTABLE
  5
1A6F
102
{ACAD_REACTORS
330
1A6E
102
}
330
1A6E
100
AcDbSortentsTable
330
1A67
  0
SORTENTSTABLE
  5
1D70
102
{ACAD_REACTORS
330
1D6F
102
}
330
1D6F
100
AcDbSortentsTable
330
1D68
  0
SORTENTSTABLE
  5
289A
102
{ACAD_REACTORS
330
2899
102
}
330
2899
100
AcDbSortentsTable
330
2896
  0
SORTENTSTABLE
  5
2D86
102
{ACAD_REACTORS
330
2D85
102
}
330
2D85
100
AcDbSortentsTable
330
2D83
  0
SORTENTSTABLE
  5
3374
102
{ACAD_REACTORS
330
3373
102
}
330
3373
100
AcDbSortentsTable
330
336E
  0
XRECORD
  5
3539
102
{ACAD_REACTORS
330
3538
102
}
330
3538
100
AcDbXrecord
280
     1
 40
79371026.0
  1
Жилой дом 4-уровневый\PЦоколь(7петель) - котельная - 7.5кв.м;\P                 отапл.гараж на 2 а/моб. - 38кв.м;\P                 бильярдная+цветочная - 55кв.м;\P1-ый этаж(6 петель) - с/у - 4,5кв.м;\P                 кухня,стол.,гостиная(всё в одно
  1
м обьёме) - 95кв.м;\P2-ой этаж(6 петель) - 2с/у - 9+4кв.м;\P                 3 спальни,кабинет - 87кв.м;\PМансарда(4 петли) - с/у - 3,5кв.м;\P                 жилое помещ.(сын) - 45кв.м 
  0
XRECORD
  5
353B
102
{ACAD_REACTORS
330
353A
102
}
330
353A
100
AcDbXrecord
280
     1
 40
13286.0
  1
ХВС
  0
XRECORD
  5
3537
102
{ACAD_REACTORS
330
3536
102
}
330
3536
100
AcDbXrecord
280
     1
 40
79809.0
  1
Бойлер ACV-210E 
  0
XRECORD
  5
353D
102
{ACAD_REACTORS
330
353C
102
}
330
353C
100
AcDbXrecord
280
     1
 40
1473.0
  1
А
  0
DIMASSOC
  5
3271
102
{ACAD_REACTORS
330
3267
102
}
330
3267
100
AcDbDimAssoc
330
325A
 90
        3
 70
     0
 71
     0
  1
AcDbOsnapPointRef
 72
    13
331
2E16
 73
     2
 91
        0
 40
0.0
 10
0.0
 20
0.0
 30
2.000000000000000E+50
 75
     0
  1
AcDbOsnapPointRef
 72
    13
331
2E17
 73
     2
 91
        0
 40
0.0
 10
0.0
 20
0.0
 30
2.000000000000000E+50
 75
     0
  0
DIMASSOC
  5
3289
102
{ACAD_REACTORS
330
327F
102
}
330
327F
100
AcDbDimAssoc
330
3272
 90
        2
 70
     0
 71
     0
  1
AcDbOsnapPointRef
 72
     8
331
2EAA
 73
     2
 91
        0
 40
0.0
 10
0.0
 20
0.0
 30
0.0
 75
     1
  1
AcDbOsnapPointRef
 72
     0
 40
0.0
 10
1927.684156668212
 20
1143.261868933333
 30
0.0
 75
     0
  0
XRECORD
  5
353F
102
{ACAD_REACTORS
330
353E
102
}
330
353E
100
AcDbXrecord
280
     1
 40
407517.0
  1
Газовый Дитрих 42Квт 
  0
XRECORD
  5
3541
102
{ACAD_REACTORS
330
3540
102
}
330
3540
100
AcDbXrecord
280
     1
 40
849562.0
  1
Резерный электрокотёл 22,5кВт 
  0
XRECORD
  5
3543
102
{ACAD_REACTORS
330
3542
102
}
330
3542
100
AcDbXrecord
280
     1
 40
37997.0
  1
КАМИН
  0
XRECORD
  5
3545
102
{ACAD_REACTORS
330
3544
102
}
330
3544
100
AcDbXrecord
280
     1
 40
1237914.0
  1
Вар.1. Повседневное использование
  0
XRECORD
  5
3547
102
{ACAD_REACTORS
330
3546
102
}
330
3546
100
AcDbXrecord
280
     1
 40
379997.0
  1
Вар.2. Нет газа и эл-ва
  0
XRECORD
  5
3549
102
{ACAD_REACTORS
330
3548
102
}
330
3548
100
AcDbXrecord
280
     1
 40
24815.0
  1
вид А
  0
XRECORD
  5
354B
102
{ACAD_REACTORS
330
354A
102
}
330
354A
100
AcDbXrecord
280
     1
 40
130698.0
  1
Трубы dу=150 - 2шт.
  0
XRECORD
  5
354D
102
{ACAD_REACTORS
330
354C
102
}
330
354C
100
AcDbXrecord
280
     1
 40
127196.0
  1
Трубы dу=30 - 2шт.
  0
XRECORD
  5
354F
102
{ACAD_REACTORS
330
354E
102
}
330
354E
100
AcDbXrecord
280
     1
 40
1529488.0
  1
Красным - контуры топки и дымовых труб.
  0
XRECORD
  5
3551
102
{ACAD_REACTORS
330
3550
102
}
330
3550
100
AcDbXrecord
280
     1
 40
6615228.0
  1
Трубы асбоцементные в монолите колонны h=12м,\Pобмотаны 2-мя слоями асбесторогожи
  0
XRECORD
  5
3528
102
{ACAD_REACTORS
330
3527
102
}
330
3527
100
AcDbXrecord
280
     1
 40
0.18
  0
XRECORD
  5
3529
102
{ACAD_REACTORS
330
3527
102
}
330
3527
100
AcDbXrecord
280
     1
 40
1.570796326794896
  0
DATALINK
  5
2AA4
102
{ACAD_REACTORS
330
2AA3
102
}
330
2AA3
100
AcDbDataLink
  1
AcExcel
300

301
Связь с данными^Jсв1^JC:\Documents and Settings\Валера\Рабочий стол\дом\прикольный расчёт ТА.xls^JСведения о связи: Весь лист: Лист1
302
C:\Documents and Settings\Валера\Рабочий стол\дом\прикольный расчёт ТА.xls!Лист1
 90
        2
 91
 68943873
 92
        1
170
  2009
171
     5
172
    15
173
    10
174
     5
175
    40
176
   750
177
     5
 93
        0
304

 94
        0
360
2AA5
305
CUSTOMDATA
  1
DATAMAP_BEGIN
 90
        3
300
ACEXCEL_UPDATEOPTIONS
301
DATAMAP_VALUE
 90
        1
 91
 68943873
300
ACEXCEL_CONNECTION_STRING
301
DATAMAP_VALUE
 90
        4
  1
C:\Documents and Settings\Валера\Рабочий стол\дом\прикольный расчёт ТА.xls!Лист1
300
ACEXCEL_SOURCEDATE
301
DATAMAP_VALUE
 90
        8
 92
        8
310
29EAED4900000000
309
DATAMAP_END
  0
LAYOUT
  5
22
102
{ACAD_XDICTIONARY
360
352A
102
}
102
{ACAD_REACTORS
330
1A
102
}
330
1A
100
AcDbPlotSettings
  1

  2
none_device
  4
ISO_A4_(210.00_x_297.00_MM)
  6

 40
7.5
 41
20.0
 42
7.5
 43
20.0
 44
210.0
 45
297.0
 46
11.54999923706054
 47
-13.65000009536743
 48
0.0
 49
0.0
140
0.0
141
0.0
142
1.0
143
8.704084754739808
 70
 11952
 72
     1
 73
     0
 74
     0
  7

 75
     0
147
0.1148885871608098
148
0.0
149
0.0
100
AcDbLayout
  1
Model
 70
     1
 71
     0
 10
0.0
 20
0.0
 11
12.0
 21
9.0
 12
0.0
 22
0.0
 32
0.0
 14
0.0
 24
0.0
 34
0.0
 15
0.0
 25
0.0
 35
0.0
146
0.0
 13
0.0
 23
0.0
 33
0.0
 16
1.0
 26
0.0
 36
0.0
 17
0.0
 27
1.0
 37
0.0
 76
     0
330
1F
331
EA
1001
ACAD_PSEXT
1000
None
1000
None
1000
Not applicable
1000
The layout will not be plotted unless a new plotter configuration name is selected.
1070
     0
  0
LAYOUT
  5
D3
102
{ACAD_XDICTIONARY
360
352D
102
}
102
{ACAD_REACTORS
330
1A
102
}
330
1A
100
AcDbPlotSettings
  1

  2
C:\Documents and Settings\basas\Application Data\Autodesk\AutoCAD 2005\R16.1\enu\plotters\Default Windows System Printer.pc3
  4

  6

 40
0.0
 41
0.0
 42
0.0
 43
0.0
 44
0.0
 45
0.0
 46
0.0
 47
0.0
 48
0.0
 49
0.0
140
0.0
141
0.0
142
1.0
143
1.0
 70
   688
 72
     0
 73
     0
 74
     5
  7

 75
    16
147
1.0
148
0.0
149
0.0
100
AcDbLayout
  1
Лист1
 70
     1
 71
     1
 10
0.0
 20
0.0
 11
12.0
 21
9.0
 12
0.0
 22
0.0
 32
0.0
 14
0.0
 24
0.0
 34
0.0
 15
0.0
 25
0.0
 35
0.0
146
0.0
 13
0.0
 23
0.0
 33
0.0
 16
1.0
 26
0.0
 36
0.0
 17
0.0
 27
1.0
 37
0.0
 76
     0
330
D2
  0
LAYOUT
  5
D7
102
{ACAD_XDICTIONARY
360
352F
102
}
102
{ACAD_REACTORS
330
1A
102
}
330
1A
100
AcDbPlotSettings
  1

  2
C:\Documents and Settings\basas\Application Data\Autodesk\AutoCAD 2005\R16.1\enu\plotters\Default Windows System Printer.pc3
  4

  6

 40
0.0
 41
0.0
 42
0.0
 43
0.0
 44
0.0
 45
0.0
 46
0.0
 47
0.0
 48
0.0
 49
0.0
140
0.0
141
0.0
142
1.0
143
1.0
 70
   688
 72
     0
 73
     0
 74
     5
  7

 75
    16
147
1.0
148
0.0
149
0.0
100
AcDbLayout
  1
Лист2
 70
     1
 71
     2
 10
0.0
 20
0.0
 11
12.0
 21
9.0
 12
0.0
 22
0.0
 32
0.0
 14
0.0
 24
0.0
 34
0.0
 15
0.0
 25
0.0
 35
0.0
146
0.0
 13
0.0
 23
0.0
 33
0.0
 16
1.0
 26
0.0
 36
0.0
 17
0.0
 27
1.0
 37
0.0
 76
     0
330
D6
  0
MATERIAL
  5
ED
102
{ACAD_XDICTIONARY
360
3533
102
}
102
{ACAD_REACTORS
330
6A
102
}
330
6A
100
AcDbMaterial
  1
ByBlock
  0
MATERIAL
  5
EC
102
{ACAD_XDICTIONARY
360
3531
102
}
102
{ACAD_REACTORS
330
6A
102
}
330
6A
100
AcDbMaterial
  1
ByLayer
  0
MATERIAL
  5
EE
102
{ACAD_XDICTIONARY
360
173
102
}
102
{ACAD_REACTORS
330
6A
102
}
330
6A
100
AcDbMaterial
  1
Global
 43
0.0007999999797903
 43
0.0
 43
0.0
 43
0.0
 43
0.0
 43
0.0007999999797903
 43
0.0
 43
0.0
 43
0.0
 43
0.0
 43
1.0
 43
0.0
 43
0.0
 43
0.0
 43
0.0
 43
1.0
 49
0.0007999999797903
 49
0.0
 49
0.0
 49
0.0
 49
0.0
 49
0.0007999999797903
 49
0.0
 49
0.0
 49
0.0
 49
0.0
 49
1.0
 49
0.0
 49
0.0
 49
0.0
 49
0.0
 49
1.0
142
0.0007999999797903
142
0.0
142
0.0
142
0.0
142
0.0
142
0.0007999999797903
142
0.0
142
0.0
142
0.0
142
0.0
142
1.0
142
0.0
142
0.0
142
0.0
142
0.0
142
1.0
144
0.0007999999797903
144
0.0
144
0.0
144
0.0
144
0.0
144
0.0007999999797903
144
0.0
144
0.0
144
0.0
144
0.0
144
1.0
144
0.0
144
0.0
144
0.0
144
0.0
144
1.0
1001
ACAD
1070
    -1
1070
     3
1070
     0
1000

1071
        0
1070
     0
  0
MLEADERSTYLE
  5
12E
102
{ACAD_REACTORS
330
12D
102
}
330
12D
100
AcDbMLeaderStyle
170
     2
171
     1
172
     0
 90
        2
 40
0.0
 41
0.0
173
     1
 91
-1056964608
340
14
 92
       -2
290
     1
 42
2.0
291
     1
 43
8.0
  3
Standard
 44
4.0
300

342
11
174
     1
178
     1
175
     1
176
     0
 93
-1056964608
 45
4.0
292
     0
297
     0
 46
4.0
 94
-1056964608
 47
1.0
 49
1.0
140
1.0
293
     1
141
0.0
294
     1
177
     0
142
1.0
295
     0
296
     0
143
3.75
1001
ACAD_MLEADERVER
1070
     2
  0
MLEADERSTYLE
  5
13B
102
{ACAD_REACTORS
330
12D
102
}
330
12D
100
AcDbMLeaderStyle
170
     2
171
     1
172
     0
 90
        2
 40
0.0
 41
0.0
173
     1
 91
-1056964608
340
14
 92
       -2
290
     1
 42
2.0
291
     1
 43
8.0
  3
Standard
 44
4.0
300

342
11
174
     1
178
     1
175
     1
176
     0
 93
-1056964608
 45
4.0
292
     0
297
     0
 46
4.0
 94
-1056964608
 47
1.0
 49
1.0
140
1.0
293
     1
141
0.0
294
     1
177
     0
142
1.0
295
     0
296
     1
143
3.75
1001
ACAD_MLEADERVER
1070
     2
  0
MLINESTYLE
  5
18
102
{ACAD_REACTORS
330
17
102
}
330
17
100
AcDbMlineStyle
  2
STANDARD
 70
     0
  3

 62
   256
 51
90.0
 52
90.0
 71
     2
 49
0.5
 62
   256
  6
BYLAYER
 49
-0.5
 62
   256
  6
BYLAYER
  0
ACDBPLACEHOLDER
  5
F
102
{ACAD_REACTORS
330
E
102
}
330
E
  0
SCALE
  5
10D
102
{ACAD_REACTORS
330
10C
102
}
330
10C
100
AcDbScale
 70
     0
300
1:1
140
1.0
141
1.0
290
     1
  0
SCALE
  5
188
102
{ACAD_REACTORS
330
10C
102
}
330
10C
100
AcDbScale
 70
     0
300
1:2
140
1.0
141
2.0
290
     0
  0
SCALE
  5
189
102
{ACAD_REACTORS
330
10C
102
}
330
10C
100
AcDbScale
 70
     0
300
1:4
140
1.0
141
4.0
290
     0
  0
SCALE
  5
18A
102
{ACAD_REACTORS
330
10C
102
}
330
10C
100
AcDbScale
 70
     0
300
1:5
140
1.0
141
5.0
290
     0
  0
SCALE
  5
18B
102
{ACAD_REACTORS
330
10C
102
}
330
10C
100
AcDbScale
 70
     0
300
1:8
140
1.0
141
8.0
290
     0
  0
SCALE
  5
18C
102
{ACAD_REACTORS
330
10C
102
}
330
10C
100
AcDbScale
 70
     0
300
1:10
140
1.0
141
10.0
290
     0
  0
SCALE
  5
18D
102
{ACAD_REACTORS
330
10C
102
}
330
10C
100
AcDbScale
 70
     0
300
1:16
140
1.0
141
16.0
290
     0
  0
SCALE
  5
18E
102
{ACAD_REACTORS
330
10C
102
}
330
10C
100
AcDbScale
 70
     0
300
1:20
140
1.0
141
20.0
290
     0
  0
SCALE
  5
18F
102
{ACAD_REACTORS
330
10C
102
}
330
10C
100
AcDbScale
 70
     0
300
1:30
140
1.0
141
30.0
290
     0
  0
SCALE
  5
190
102
{ACAD_REACTORS
330
10C
102
}
330
10C
100
AcDbScale
 70
     0
300
1:40
140
1.0
141
40.0
290
     0
  0
SCALE
  5
191
102
{ACAD_REACTORS
330
10C
102
}
330
10C
100
AcDbScale
 70
     0
300
1:50
140
1.0
141
50.0
290
     0
  0
SCALE
  5
192
102
{ACAD_REACTORS
330
10C
102
}
330
10C
100
AcDbScale
 70
     0
300
1:100
140
1.0
141
100.0
290
     0
  0
SCALE
  5
193
102
{ACAD_REACTORS
330
10C
102
}
330
10C
100
AcDbScale
 70
     0
300
2:1
140
2.0
141
1.0
290
     0
  0
SCALE
  5
194
102
{ACAD_REACTORS
330
10C
102
}
330
10C
100
AcDbScale
 70
     0
300
4:1
140
4.0
141
1.0
290
     0
  0
SCALE
  5
195
102
{ACAD_REACTORS
330
10C
102
}
330
10C
100
AcDbScale
 70
     0
300
8:1
140
8.0
141
1.0
290
     0
  0
SCALE
  5
196
102
{ACAD_REACTORS
330
10C
102
}
330
10C
100
AcDbScale
 70
     0
300
10:1
140
10.0
141
1.0
290
     0
  0
SCALE
  5
197
102
{ACAD_REACTORS
330
10C
102
}
330
10C
100
AcDbScale
 70
     0
300
100:1
140
100.0
141
1.0
290
     0
  0
SCALE
  5
198
102
{ACAD_REACTORS
330
10C
102
}
330
10C
100
AcDbScale
 70
     0
300
1/128" = 1'-0"
140
0.0078125
141
12.0
290
     0
  0
SCALE
  5
199
102
{ACAD_REACTORS
330
10C
102
}
330
10C
100
AcDbScale
 70
     0
300
1/64" = 1'-0"
140
0.015625
141
12.0
290
     0
  0
SCALE
  5
19A
102
{ACAD_REACTORS
330
10C
102
}
330
10C
100
AcDbScale
 70
     0
300
1/32" = 1'-0"
140
0.03125
141
12.0
290
     0
  0
SCALE
  5
19B
102
{ACAD_REACTORS
330
10C
102
}
330
10C
100
AcDbScale
 70
     0
300
1/16" = 1'-0"
140
0.0625
141
12.0
290
     0
  0
SCALE
  5
19C
102
{ACAD_REACTORS
330
10C
102
}
330
10C
100
AcDbScale
 70
     0
300
3/32" = 1'-0"
140
0.09375
141
12.0
290
     0
  0
SCALE
  5
19D
102
{ACAD_REACTORS
330
10C
102
}
330
10C
100
AcDbScale
 70
     0
300
1/8" = 1'-0"
140
0.125
141
12.0
290
     0
  0
SCALE
  5
19E
102
{ACAD_REACTORS
330
10C
102
}
330
10C
100
AcDbScale
 70
     0
300
3/16" = 1'-0"
140
0.1875
141
12.0
290
     0
  0
SCALE
  5
19F
102
{ACAD_REACTORS
330
10C
102
}
330
10C
100
AcDbScale
 70
     0
300
1/4" = 1'-0"
140
0.25
141
12.0
290
     0
  0
SCALE
  5
1A0
102
{ACAD_REACTORS
330
10C
102
}
330
10C
100
AcDbScale
 70
     0
300
3/8" = 1'-0"
140
0.375
141
12.0
290
     0
  0
SCALE
  5
1A1
102
{ACAD_REACTORS
330
10C
102
}
330
10C
100
AcDbScale
 70
     0
300
1/2" = 1'-0"
140
0.5
141
12.0
290
     0
  0
SCALE
  5
1A2
102
{ACAD_REACTORS
330
10C
102
}
330
10C
100
AcDbScale
 70
     0
300
3/4" = 1'-0"
140
0.75
141
12.0
290
     0
  0
SCALE
  5
1A3
102
{ACAD_REACTORS
330
10C
102
}
330
10C
100
AcDbScale
 70
     0
300
1" = 1'-0"
140
1.0
141
12.0
290
     0
  0
SCALE
  5
1A4
102
{ACAD_REACTORS
330
10C
102
}
330
10C
100
AcDbScale
 70
     0
300
1-1/2" = 1'-0"
140
1.5
141
12.0
290
     0
  0
SCALE
  5
1A5
102
{ACAD_REACTORS
330
10C
102
}
330
10C
100
AcDbScale
 70
     0
300
3" = 1'-0"
140
3.0
141
12.0
290
     0
  0
SCALE
  5
1A6
102
{ACAD_REACTORS
330
10C
102
}
330
10C
100
AcDbScale
 70
     0
300
6" = 1'-0"
140
6.0
141
12.0
290
     0
  0
SCALE
  5
1A7
102
{ACAD_REACTORS
330
10C
102
}
330
10C
100
AcDbScale
 70
     0
300
1'-0" = 1'-0"
140
12.0
141
12.0
290
     0
  0
TABLESTYLE
  5
7F
102
{ACAD_XDICTIONARY
360
162
102
}
102
{ACAD_REACTORS
330
7E
102
}
330
7E
100
AcDbTableStyle
  3
Standard
 70
     0
 71
     0
 40
1.5
 41
1.5
280
     0
281
     0
  7
Standard
140
4.5
170
     2
 62
     0
 63
     7
283
     0
274
    -2
284
     1
 64
     0
275
    -2
285
     1
 65
     0
276
    -2
286
     1
 66
     0
277
    -2
287
     1
 67
     0
278
    -2
288
     1
 68
     0
279
    -2
289
     1
 69
     0
  7
Standard
140
6.0
170
     5
 62
     0
 63
     7
283
     0
274
    -2
284
     1
 64
     0
275
    -2
285
     1
 65
     0
276
    -2
286
     1
 66
     0
277
    -2
287
     1
 67
     0
278
    -2
288
     1
 68
     0
279
    -2
289
     1
 69
     0
  7
Standard
140
4.5
170
     5
 62
     0
 63
     7
283
     0
274
    -2
284
     1
 64
     0
275
    -2
285
     1
 65
     0
276
    -2
286
     1
 66
     0
277
    -2
287
     1
 67
     0
278
    -2
288
     1
 68
     0
279
    -2
289
     1
 69
     0
  0
VISUALSTYLE
  5
F5
102
{ACAD_REACTORS
330
EF
102
}
330
EF
100
AcDbVisualStyle
  2
2dWireframe
 70
     4
 71
     0
 72
     2
 73
     1
 90
        0
 40
-0.6
 41
-30.0
 62
     5
 63
     7
 74
     1
 91
        4
 64
     7
 65
   257
 75
     1
175
     1
 42
1.0
 92
        0
 66
   257
 43
1.0
 76
     1
 77
     6
 78
     2
 67
     7
 79
     5
170
     0
171
     0
290
     0
174
     0
 93
        1
 44
0.0
173
     0
291
     0
 45
0.0
1001
ACAD
1000
AcDbSavedByObjectVersion
1070
     0
  0
VISUALSTYLE
  5
F7
102
{ACAD_REACTORS
330
EF
102
}
330
EF
100
AcDbVisualStyle
  2
3D Hidden
 70
     6
 71
     1
 72
     2
 73
     2
 90
        0
 40
-0.6
 41
-30.0
 62
     5
 63
     7
 74
     2
 91
        2
 64
     7
 65
   257
 75
     2
175
     1
 42
40.0
 92
        0
 66
   257
 43
1.0
 76
     1
 77
     6
 78
     2
 67
     7
 79
     3
170
     0
171
     0
290
     0
174
     0
 93
        1
 44
0.0
173
     0
291
     0
 45
0.0
1001
ACAD
1000
AcDbSavedByObjectVersion
1070
     0
  0
VISUALSTYLE
  5
F6
102
{ACAD_REACTORS
330
EF
102
}
330
EF
100
AcDbVisualStyle
  2
3dWireframe
 70
     5
 71
     0
 72
     2
 73
     1
 90
        0
 40
-0.6
 41
-30.0
 62
     5
 63
     7
 74
     1
 91
        4
 64
     7
 65
   257
 75
     1
175
     1
 42
1.0
 92
        0
 66
   257
 43
1.0
 76
     1
 77
     6
 78
     2
 67
     7
 79
     5
170
     0
171
     0
290
     0
174
     0
 93
        1
 44
0.0
173
     0
291
     0
 45
0.0
1001
ACAD
1000
AcDbSavedByObjectVersion
1070
     0
  0
VISUALSTYLE
  5
F4
102
{ACAD_REACTORS
330
EF
102
}
330
EF
100
AcDbVisualStyle
  2
Basic
 70
     7
 71
     1
 72
     0
 73
     1
 90
        0
 40
-0.6
 41
-30.0
 62
     5
 63
     7
 74
     0
 91
        4
 64
     7
 65
   257
 75
     1
175
     1
 42
1.0
 92
        8
 66
     7
 43
1.0
 76
     1
 77
     6
 78
     2
 67
     7
 79
     5
170
     0
171
     0
290
     0
174
     0
 93
        1
 44
0.0
173
     0
291
     1
 45
0.0
1001
ACAD
1000
AcDbSavedByObjectVersion
1070
     0
  0
VISUALSTYLE
  5
FB
102
{ACAD_REACTORS
330
EF
102
}
330
EF
100
AcDbVisualStyle
  2
Brighten
 70
    12
 71
     2
 72
     2
 73
     1
 90
        0
 40
-0.6
 41
-30.0
 62
     5
 63
     7
 74
     1
 91
        4
 64
     7
 65
   257
 75
     1
175
     1
 42
1.0
 92
        8
 66
     7
 43
1.0
 76
     1
 77
     6
 78
     2
 67
     7
 79
     5
170
     0
171
     0
290
     0
174
     0
 93
        1
 44
50.0
173
     0
291
     1
 45
0.0
1001
ACAD
1000
AcDbSavedByObjectVersion
1070
     0
  0
VISUALSTYLE
  5
FF
102
{ACAD_REACTORS
330
EF
102
}
330
EF
100
AcDbVisualStyle
  2
ColorChange
 70
    16
 71
     2
 72
     2
 73
     3
 90
        0
 40
-0.6
 41
-30.0
 62
     5
 63
     8
 74
     1
 91
        4
 64
     7
 65
   257
 75
     1
175
     1
 42
1.0
 92
        8
 66
     8
 43
1.0
 76
     1
 77
     6
 78
     2
 67
     7
 79
     5
170
     0
171
     0
290
     0
174
     0
 93
        1
 44
0.0
173
     0
291
     1
 45
0.0
1001
ACAD
1000
AcDbSavedByObjectVersion
1070
     0
  0
VISUALSTYLE
  5
F8
102
{ACAD_REACTORS
330
EF
102
}
330
EF
100
AcDbVisualStyle
  2
Conceptual
 70
     9
 71
     3
 72
     2
 73
     1
 90
        0
 40
-0.6
 41
-30.0
 62
     5
 63
     7
 74
     2
 91
        2
 64
     7
 65
   257
 75
     1
175
     1
 42
40.0
 92
        8
 66
     7
 43
1.0
 76
     1
 77
     6
 78
     2
 67
     7
 79
     3
170
     0
171
     0
290
     0
174
     0
 93
        1
 44
0.0
173
     0
291
     0
 45
0.0
1001
ACAD
1000
AcDbSavedByObjectVersion
1070
     0
  0
VISUALSTYLE
  5
FA
102
{ACAD_REACTORS
330
EF
102
}
330
EF
100
AcDbVisualStyle
  2
Dim
 70
    11
 71
     2
 72
     2
 73
     1
 90
        0
 40
-0.6
 41
-30.0
 62
     5
 63
     7
 74
     1
 91
        4
 64
     7
 65
   257
 75
     1
175
     1
 42
1.0
 92
        8
 66
     7
 43
1.0
 76
     1
 77
     6
 78
     2
 67
     7
 79
     5
170
     0
171
     0
290
     0
174
     0
 93
        1
 44
-50.0
173
     0
291
     1
 45
0.0
1001
ACAD
1000
AcDbSavedByObjectVersion
1070
     0
  0
VISUALSTYLE
  5
FE
102
{ACAD_REACTORS
330
EF
102
}
330
EF
100
AcDbVisualStyle
  2
Facepattern
 70
    15
 71
     2
 72
     2
 73
     1
 90
        0
 40
-0.6
 41
-30.0
 62
     5
 63
     7
 74
     1
 91
        4
 64
     7
 65
   257
 75
     1
175
     1
 42
1.0
 92
        8
 66
     7
 43
1.0
 76
     1
 77
     6
 78
     2
 67
     7
 79
     5
170
     0
171
     0
290
     0
174
     0
 93
        1
 44
0.0
173
     0
291
     1
 45
0.0
1001
ACAD
1000
AcDbSavedByObjectVersion
1070
     0
  0
VISUALSTYLE
  5
F0
102
{ACAD_REACTORS
330
EF
102
}
330
EF
100
AcDbVisualStyle
  2
Flat
 70
     0
 71
     2
 72
     1
 73
     1
 90
        2
 40
-0.6
 41
30.0
 62
     5
 63
     7
 74
     0
 91
        4
 64
     7
 65
   257
 75
     1
175
     1
 42
1.0
 92
        8
 66
     7
 43
1.0
 76
     1
 77
     6
 78
     2
 67
     7
 79
     5
170
     0
171
     0
290
     0
174
     0
 93
        1
 44
0.0
173
     0
291
     1
 45
0.0
1001
ACAD
1000
AcDbSavedByObjectVersion
1070
     0
  0
VISUALSTYLE
  5
F1
102
{ACAD_REACTORS
330
EF
102
}
330
EF
100
AcDbVisualStyle
  2
FlatWithEdges
 70
     1
 71
     2
 72
     1
 73
     1
 90
        2
 40
-0.6
 41
30.0
 62
     5
 63
     7
 74
     1
 91
        4
 64
     7
 65
   257
 75
     1
175
     1
 42
1.0
 92
        0
 66
   257
 43
1.0
 76
     1
 77
     6
 78
     2
 67
     7
 79
     5
170
     0
171
     0
290
     0
174
     0
 93
        1
 44
0.0
173
     0
291
     1
 45
0.0
1001
ACAD
1000
AcDbSavedByObjectVersion
1070
     0
  0
VISUALSTYLE
  5
F2
102
{ACAD_REACTORS
330
EF
102
}
330
EF
100
AcDbVisualStyle
  2
Gouraud
 70
     2
 71
     2
 72
     2
 73
     1
 90
        2
 40
-0.6
 41
30.0
 62
     5
 63
     7
 74
     0
 91
        4
 64
     7
 65
   257
 75
     1
175
     1
 42
1.0
 92
        0
 66
     7
 43
1.0
 76
     1
 77
     6
 78
     2
 67
     7
 79
     5
170
     0
171
     0
290
     0
174
     0
 93
        1
 44
0.0
173
     0
291
     1
 45
0.0
1001
ACAD
1000
AcDbSavedByObjectVersion
1070
     0
  0
VISUALSTYLE
  5
F3
102
{ACAD_REACTORS
330
EF
102
}
330
EF
100
AcDbVisualStyle
  2
GouraudWithEdges
 70
     3
 71
     2
 72
     2
 73
     1
 90
        2
 40
-0.6
 41
30.0
 62
     5
 63
     7
 74
     1
 91
        4
 64
     7
 65
   257
 75
     1
175
     1
 42
1.0
 92
        0
 66
   257
 43
1.0
 76
     1
 77
     6
 78
     2
 67
     7
 79
     5
170
     0
171
     0
290
     0
174
     0
 93
        1
 44
0.0
173
     0
291
     1
 45
0.0
1001
ACAD
1000
AcDbSavedByObjectVersion
1070
     0
  0
VISUALSTYLE
  5
FD
102
{ACAD_REACTORS
330
EF
102
}
330
EF
100
AcDbVisualStyle
  2
Linepattern
 70
    14
 71
     2
 72
     2
 73
     1
 90
        0
 40
-0.6
 41
-30.0
 62
     5
 63
     7
 74
     1
 91
        4
 64
     7
 65
   257
 75
     7
175
     7
 42
1.0
 92
        8
 66
     7
 43
1.0
 76
     1
 77
     6
 78
     2
 67
     7
 79
     5
170
     0
171
     0
290
     0
174
     0
 93
        1
 44
0.0
173
     0
291
     1
 45
0.0
1001
ACAD
1000
AcDbSavedByObjectVersion
1070
     0
  0
VISUALSTYLE
  5
F9
102
{ACAD_REACTORS
330
EF
102
}
330
EF
100
AcDbVisualStyle
  2
Realistic
 70
     8
 71
     2
 72
     2
 73
     1
 90
        0
 40
-0.6
 41
-30.0
 62
     5
 63
     7
 74
     1
 91
        0
 64
     7
 65
   257
 75
     1
175
     1
 42
1.0
 92
        8
 66
     8
 43
1.0
 76
     1
 77
     6
 78
     2
 67
     7
 79
     5
170
     0
171
     0
290
     0
174
     0
 93
       13
 44
0.0
173
     0
291
     0
 45
0.0
1001
ACAD
1000
AcDbSavedByObjectVersion
1070
     0
  0
VISUALSTYLE
  5
FC
102
{ACAD_REACTORS
330
EF
102
}
330
EF
100
AcDbVisualStyle
  2
Thicken
 70
    13
 71
     2
 72
     2
 73
     1
 90
        0
 40
-0.6
 41
-30.0
 62
     5
 63
     7
 74
     1
 91
        4
 64
     7
 65
   257
 75
     1
175
     1
 42
1.0
 92
       12
 66
     7
 43
1.0
 76
     1
 77
     6
 78
     2
 67
     7
 79
     5
170
     0
171
     0
290
     0
174
     0
 93
        1
 44
0.0
173
     0
291
     1
 45
0.0
1001
ACAD
1000
AcDbSavedByObjectVersion
1070
     0
  0
DICTIONARYVAR
  5
146
102
{ACAD_REACTORS
330
5E
102
}
330
5E
100
DictionaryVariables
280
     0
  1
1:1
  0
DICTIONARYVAR
  5
145
102
{ACAD_REACTORS
330
5E
102
}
330
5E
100
DictionaryVariables
280
     0
  1
STANDARD
  0
DICTIONARYVAR
  5
84
102
{ACAD_REACTORS
330
5E
102
}
330
5E
100
DictionaryVariables
280
     0
  1
STANDARD
  0
DICTIONARYVAR
  5
5F
102
{ACAD_REACTORS
330
5E
102
}
330
5E
100
DictionaryVariables
280
     0
  1
2
  0
DICTIONARYVAR
  5
63
102
{ACAD_REACTORS
330
5E
102
}
330
5E
100
DictionaryVariables
280
     0
  1
1
  0
DICTIONARYVAR
  5
29B6
102
{ACAD_REACTORS
330
5E
102
}
330
5E
100
DictionaryVariables
280
     0
  1
0
  0
DICTIONARYVAR
  5
128C
102
{ACAD_REACTORS
330
5E
102
}
330
5E
100
DictionaryVariables
280
     0
  1
2
  0
DICTIONARYVAR
  5
128B
102
{ACAD_REACTORS
330
5E
102
}
330
5E
100
DictionaryVariables
280
     0
  1
1
  0
DICTIONARYVAR
  5
3524
102
{ACAD_REACTORS
330
5E
102
}
330
5E
100
DictionaryVariables
280
     0
  1
80.000000
  0
DICTIONARYVAR
  5
3523
102
{ACAD_REACTORS
330
5E
102
}
330
5E
100
DictionaryVariables
280
     0
  1
5.000000
  0
DICTIONARYVAR
  5
29B5
102
{ACAD_REACTORS
330
5E
102
}
330
5E
100
DictionaryVariables
280
     0
  1
127
  0
TABLECONTENT
  5
2AA5
330
0
100
AcDbLinkedData
  1

300

100
AcDbLinkedTableData
 90
        4
300
COLUMN
  1
LINKEDTABLEDATACOLUMN_BEGIN
300

 91
        0
301
CUSTOMDATA
  1
DATAMAP_BEGIN
 90
        0
309
DATAMAP_END
309
LINKEDTABLEDATACOLUMN_END
  1
FORMATTEDTABLEDATACOLUMN_BEGIN
300
COLUMNTABLEFORMAT
  1
TABLEFORMAT_BEGIN
 90
        3
170
     0
309
TABLEFORMAT_END
309
FORMATTEDTABLEDATACOLUMN_END
  1
TABLECOLUMN_BEGIN
 90
        0
 40
83.96111111111109
309
TABLECOLUMN_END
300
COLUMN
  1
LINKEDTABLEDATACOLUMN_BEGIN
300

 91
        0
301
CUSTOMDATA
  1
DATAMAP_BEGIN
 90
        0
309
DATAMAP_END
309
LINKEDTABLEDATACOLUMN_END
  1
FORMATTEDTABLEDATACOLUMN_BEGIN
300
COLUMNTABLEFORMAT
  1
TABLEFORMAT_BEGIN
 90
        3
170
     0
309
TABLEFORMAT_END
309
FORMATTEDTABLEDATACOLUMN_END
  1
TABLECOLUMN_BEGIN
 90
        0
 40
25.4
309
TABLECOLUMN_END
300
COLUMN
  1
LINKEDTABLEDATACOLUMN_BEGIN
300

 91
        0
301
CUSTOMDATA
  1
DATAMAP_BEGIN
 90
        0
309
DATAMAP_END
309
LINKEDTABLEDATACOLUMN_END
  1
FORMATTEDTABLEDATACOLUMN_BEGIN
300
COLUMNTABLEFORMAT
  1
TABLEFORMAT_BEGIN
 90
        3
170
     0
309
TABLEFORMAT_END
309
FORMATTEDTABLEDATACOLUMN_END
  1
TABLECOLUMN_BEGIN
 90
        0
 40
23.28333333333333
309
TABLECOLUMN_END
300
COLUMN
  1
LINKEDTABLEDATACOLUMN_BEGIN
300

 91
        0
301
CUSTOMDATA
  1
DATAMAP_BEGIN
 90
        0
309
DATAMAP_END
309
LINKEDTABLEDATACOLUMN_END
  1
FORMATTEDTABLEDATACOLUMN_BEGIN
300
COLUMNTABLEFORMAT
  1
TABLEFORMAT_BEGIN
 90
        3
170
     0
309
TABLEFORMAT_END
309
FORMATTEDTABLEDATACOLUMN_END
  1
TABLECOLUMN_BEGIN
 90
        0
 40
22.93055555555556
309
TABLECOLUMN_END
 91
       27
301
ROW
  1
LINKEDTABLEDATAROW_BEGIN
 90
        4
300
CELL
  1
LINKEDTABLEDATACELL_BEGIN
 90
        0
300

 91
        0
301
CUSTOMDATA
  1
DATAMAP_BEGIN
 90
        0
309
DATAMAP_END
 92
        0
 95
        1
302
CONTENT
  1
CELLCONTENT_BEGIN
 90
        1
300
VALUE
 90
        4
  1
{\fArial Cyr|b0|i0|c0;\H0.6667x;Расчет теплового аккумулятора (цилиндр, D/h=1 )
 91
        0
309
CELLCONTENT_END
  1
FORMATTEDCELLCONTENT_BEGIN
170
     1
300
CONTENTFORMAT
  1
CONTENTFORMAT_BEGIN
 90
        3
 91
        0
 92
        4
 93
        0
300

 40
0.0
140
1.0
 94
        1
 62
     0
340
0
144
0.18
309
CONTENTFORMAT_END
309
FORMATTEDCELLCONTENT_END
309
LINKEDTABLEDATACELL_END
  1
FORMATTEDTABLEDATACELL_BEGIN
300
CELLTABLEFORMAT
  1
TABLEFORMAT_BEGIN
 90
        1
170
     1
 91
      532
 92
        0
 62
   257
 93
        1
300
CONTENTFORMAT
  1
CONTENTFORMAT_BEGIN
 90
        0
 91
        0
 92
      512
 93
        0
300

 40
0.0
140
1.0
 94
        7
 62
     0
340
0
144
0.18
309
CONTENTFORMAT_END
171
     0
 94
        0
309
TABLEFORMAT_END
309
FORMATTEDTABLEDATACELL_END
  1
TABLECELL_BEGIN
 90
        0
 91
        0
309
TABLECELL_END
300
CELL
  1
LINKEDTABLEDATACELL_BEGIN
 90
        0
300

 91
        0
301
CUSTOMDATA
  1
DATAMAP_BEGIN
 90
        0
309
DATAMAP_END
 92
        0
 95
        1
302
CONTENT
  1
CELLCONTENT_BEGIN
 90
        1
300
VALUE
 90
        4
  1
{\fArial Cyr|b0|i0|c0;\H0.6667x;
 91
        0
309
CELLCONTENT_END
  1
FORMATTEDCELLCONTENT_BEGIN
170
     1
300
CONTENTFORMAT
  1
CONTENTFORMAT_BEGIN
 90
        3
 91
        0
 92
        4
 93
        0
300

 40
0.0
140
1.0
 94
        1
 62
     0
340
0
144
0.18
309
CONTENTFORMAT_END
309
FORMATTEDCELLCONTENT_END
309
LINKEDTABLEDATACELL_END
  1
FORMATTEDTABLEDATACELL_BEGIN
300
CELLTABLEFORMAT
  1
TABLEFORMAT_BEGIN
 90
        1
170
     1
 91
      532
 92
        0
 62
   257
 93
        1
300
CONTENTFORMAT
  1
CONTENTFORMAT_BEGIN
 90
        0
 91
        0
 92
      512
 93
        0
300

 40
0.0
140
1.0
 94
        8
 62
     0
340
0
144
0.18
309
CONTENTFORMAT_END
171
     0
 94
        0
309
TABLEFORMAT_END
309
FORMATTEDTABLEDATACELL_END
  1
TABLECELL_BEGIN
 90
        0
 91
        0
309
TABLECELL_END
300
CELL
  1
LINKEDTABLEDATACELL_BEGIN
 90
        0
300

 91
        0
301
CUSTOMDATA
  1
DATAMAP_BEGIN
 90
        0
309
DATAMAP_END
 92
        0
 95
        1
302
CONTENT
  1
CELLCONTENT_BEGIN
 90
        1
300
VALUE
 90
        4
  1
{\fArial Cyr|b0|i0|c0;\H0.6667x;
 91
        0
309
CELLCONTENT_END
  1
FORMATTEDCELLCONTENT_BEGIN
170
     1
300
CONTENTFORMAT
  1
CONTENTFORMAT_BEGIN
 90
        3
 91
        0
 92
        4
 93
        0
300

 40
0.0
140
1.0
 94
        1
 62
     0
340
0
144
0.18
309
CONTENTFORMAT_END
309
FORMATTEDCELLCONTENT_END
309
LINKEDTABLEDATACELL_END
  1
FORMATTEDTABLEDATACELL_BEGIN
300
CELLTABLEFORMAT
  1
TABLEFORMAT_BEGIN
 90
        1
170
     1
 91
      532
 92
        0
 62
   257
 93
        1
300
CONTENTFORMAT
  1
CONTENTFORMAT_BEGIN
 90
        0
 91
        0
 92
      512
 93
        0
300

 40
0.0
140
1.0
 94
        8
 62
     0
340
0
144
0.18
309
CONTENTFORMAT_END
171
     0
 94
        0
309
TABLEFORMAT_END
309
FORMATTEDTABLEDATACELL_END
  1
TABLECELL_BEGIN
 90
        0
 91
        0
309
TABLECELL_END
300
CELL
  1
LINKEDTABLEDATACELL_BEGIN
 90
        0
300

 91
        0
301
CUSTOMDATA
  1
DATAMAP_BEGIN
 90
        0
309
DATAMAP_END
 92
        0
 95
        1
302
CONTENT
  1
CELLCONTENT_BEGIN
 90
        1
300
VALUE
 90
        4
  1
{\fArial Cyr|b0|i0|c0;\H0.6667x;
 91
        0
309
CELLCONTENT_END
  1
FORMATTEDCELLCONTENT_BEGIN
170
     1
300
CONTENTFORMAT
  1
CONTENTFORMAT_BEGIN
 90
        3
 91
        0
 92
        4
 93
        0
300

 40
0.0
140
1.0
 94
        1
 62
     0
340
0
144
0.18
309
CONTENTFORMAT_END
309
FORMATTEDCELLCONTENT_END
309
LINKEDTABLEDATACELL_END
  1
FORMATTEDTABLEDATACELL_BEGIN
300
CELLTABLEFORMAT
  1
TABLEFORMAT_BEGIN
 90
        1
170
     1
 91
      532
 92
        0
 62
   257
 93
        1
300
CONTENTFORMAT
  1
CONTENTFORMAT_BEGIN
 90
        0
 91
        0
 92
      512
 93
        0
300

 40
0.0
140
1.0
 94
        8
 62
     0
340
0
144
0.18
309
CONTENTFORMAT_END
171
     0
 94
        0
309
TABLEFORMAT_END
309
FORMATTEDTABLEDATACELL_END
  1
TABLECELL_BEGIN
 90
        0
 91
        0
309
TABLECELL_END
 91
        0
301
CUSTOMDATA
  1
DATAMAP_BEGIN
 90
        0
309
DATAMAP_END
309
LINKEDTABLEDATAROW_END
  1
FORMATTEDTABLEDATAROW_BEGIN
300
ROWTABLEFORMAT
  1
TABLEFORMAT_BEGIN
 90
        2
170
     0
309
TABLEFORMAT_END
309
FORMATTEDTABLEDATAROW_END
  1
TABLEROW_BEGIN
 90
        0
 40
5.291666666666666
309
TABLEROW_END
301
ROW
  1
LINKEDTABLEDATAROW_BEGIN
 90
        4
300
CELL
  1
LINKEDTABLEDATACELL_BEGIN
 90
        0
300

 91
        0
301
CUSTOMDATA
  1
DATAMAP_BEGIN
 90
        0
309
DATAMAP_END
 92
        0
 95
        1
302
CONTENT
  1
CELLCONTENT_BEGIN
 90
        1
300
VALUE
 90
        4
  1
{\fArial Cyr|b0|i0|c0;\H0.6667x;
 91
        0
309
CELLCONTENT_END
  1
FORMATTEDCELLCONTENT_BEGIN
170
     1
300
CONTENTFORMAT
  1
CONTENTFORMAT_BEGIN
 90
        3
 91
        0
 92
        4
 93
        0
300

 40
0.0
140
1.0
 94
        1
 62
     0
340
0
144
0.18
309
CONTENTFORMAT_END
309
FORMATTEDCELLCONTENT_END
309
LINKEDTABLEDATACELL_END
  1
FORMATTEDTABLEDATACELL_BEGIN
300
CELLTABLEFORMAT
  1
TABLEFORMAT_BEGIN
 90
        1
170
     1
 91
      532
 92
        0
 62
   257
 93
        1
300
CONTENTFORMAT
  1
CONTENTFORMAT_BEGIN
 90
        0
 91
        0
 92
      512
 93
        0
300

 40
0.0
140
1.0
 94
        7
 62
     0
340
0
144
0.18
309
CONTENTFORMAT_END
171
     0
 94
        0
309
TABLEFORMAT_END
309
FORMATTEDTABLEDATACELL_END
  1
TABLECELL_BEGIN
 90
        0
 91
        0
309
TABLECELL_END
300
CELL
  1
LINKEDTABLEDATACELL_BEGIN
 90
        0
300

 91
        0
301
CUSTOMDATA
  1
DATAMAP_BEGIN
 90
        0
309
DATAMAP_END
 92
        0
 95
        1
302
CONTENT
  1
CELLCONTENT_BEGIN
 90
        1
300
VALUE
 90
        4
  1
{\fArial Cyr|b0|i0|c0;\H0.6667x;вода
 91
        0
309
CELLCONTENT_END
  1
FORMATTEDCELLCONTENT_BEGIN
170
     1
300
CONTENTFORMAT
  1
CONTENTFORMAT_BEGIN
 90
        3
 91
        0
 92
        4
 93
        0
300

 40
0.0
140
1.0
 94
        1
 62
     0
340
0
144
0.18
309
CONTENTFORMAT_END
309
FORMATTEDCELLCONTENT_END
309
LINKEDTABLEDATACELL_END
  1
FORMATTEDTABLEDATACELL_BEGIN
300
CELLTABLEFORMAT
  1
TABLEFORMAT_BEGIN
 90
        1
170
     1
 91
      532
 92
        0
 62
   257
 93
        1
300
CONTENTFORMAT
  1
CONTENTFORMAT_BEGIN
 90
        0
 91
        0
 92
      512
 93
        0
300

 40
0.0
140
1.0
 94
        8
 62
     0
340
0
144
0.18
309
CONTENTFORMAT_END
171
     0
 94
        0
309
TABLEFORMAT_END
309
FORMATTEDTABLEDATACELL_END
  1
TABLECELL_BEGIN
 90
        0
 91
        0
309
TABLECELL_END
300
CELL
  1
LINKEDTABLEDATACELL_BEGIN
 90
        0
300

 91
        0
301
CUSTOMDATA
  1
DATAMAP_BEGIN
 90
        0
309
DATAMAP_END
 92
        0
 95
        1
302
CONTENT
  1
CELLCONTENT_BEGIN
 90
        1
300
VALUE
 90
        4
  1
{\fArial Cyr|b0|i0|c0;\H0.6667x;чугун
 91
        0
309
CELLCONTENT_END
  1
FORMATTEDCELLCONTENT_BEGIN
170
     1
300
CONTENTFORMAT
  1
CONTENTFORMAT_BEGIN
 90
        3
 91
        0
 92
        4
 93
        0
300

 40
0.0
140
1.0
 94
        1
 62
     0
340
0
144
0.18
309
CONTENTFORMAT_END
309
FORMATTEDCELLCONTENT_END
309
LINKEDTABLEDATACELL_END
  1
FORMATTEDTABLEDATACELL_BEGIN
300
CELLTABLEFORMAT
  1
TABLEFORMAT_BEGIN
 90
        1
170
     1
 91
      532
 92
        0
 62
   257
 93
        1
300
CONTENTFORMAT
  1
CONTENTFORMAT_BEGIN
 90
        0
 91
        0
 92
      512
 93
        0
300

 40
0.0
140
1.0
 94
        8
 62
     0
340
0
144
0.18
309
CONTENTFORMAT_END
171
     0
 94
        0
309
TABLEFORMAT_END
309
FORMATTEDTABLEDATACELL_END
  1
TABLECELL_BEGIN
 90
        0
 91
        0
309
TABLECELL_END
300
CELL
  1
LINKEDTABLEDATACELL_BEGIN
 90
        0
300

 91
        0
301
CUSTOMDATA
  1
DATAMAP_BEGIN
 90
        0
309
DATAMAP_END
 92
        0
 95
        1
302
CONTENT
  1
CELLCONTENT_BEGIN
 90
        1
300
VALUE
 90
        4
  1
{\fArial Cyr|b0|i0|c0;\H0.6667x;гранит
 91
        0
309
CELLCONTENT_END
  1
FORMATTEDCELLCONTENT_BEGIN
170
     1
300
CONTENTFORMAT
  1
CONTENTFORMAT_BEGIN
 90
        3
 91
        0
 92
        4
 93
        0
300

 40
0.0
140
1.0
 94
        1
 62
     0
340
0
144
0.18
309
CONTENTFORMAT_END
309
FORMATTEDCELLCONTENT_END
309
LINKEDTABLEDATACELL_END
  1
FORMATTEDTABLEDATACELL_BEGIN
300
CELLTABLEFORMAT
  1
TABLEFORMAT_BEGIN
 90
        1
170
     1
 91
      532
 92
        0
 62
   257
 93
        1
300
CONTENTFORMAT
  1
CONTENTFORMAT_BEGIN
 90
        0
 91
        0
 92
      512
 93
        0
300

 40
0.0
140
1.0
 94
        8
 62
     0
340
0
144
0.18
309
CONTENTFORMAT_END
171
     0
 94
        0
309
TABLEFORMAT_END
309
FORMATTEDTABLEDATACELL_END
  1
TABLECELL_BEGIN
 90
        0
 91
        0
309
TABLECELL_END
 91
        0
301
CUSTOMDATA
  1
DATAMAP_BEGIN
 90
        0
309
DATAMAP_END
309
LINKEDTABLEDATAROW_END
  1
FORMATTEDTABLEDATAROW_BEGIN
300
ROWTABLEFORMAT
  1
TABLEFORMAT_BEGIN
 90
        2
170
     0
309
TABLEFORMAT_END
309
FORMATTEDTABLEDATAROW_END
  1
TABLEROW_BEGIN
 90
        0
 40
5.291666666666666
309
TABLEROW_END
301
ROW
  1
LINKEDTABLEDATAROW_BEGIN
 90
        4
300
CELL
  1
LINKEDTABLEDATACELL_BEGIN
 90
        0
300

 91
        0
301
CUSTOMDATA
  1
DATAMAP_BEGIN
 90
        0
309
DATAMAP_END
 92
        0
 95
        1
302
CONTENT
  1
CELLCONTENT_BEGIN
 90
        1
300
VALUE
 90
        4
  1
{\fArial Cyr|b0|i0|c0;\H0.6667x;Теплоемкость матрицы, кдж/кг\\К
 91
        0
309
CELLCONTENT_END
  1
FORMATTEDCELLCONTENT_BEGIN
170
     1
300
CONTENTFORMAT
  1
CONTENTFORMAT_BEGIN
 90
        3
 91
        0
 92
        4
 93
        0
300

 40
0.0
140
1.0
 94
        1
 62
     0
340
0
144
0.18
309
CONTENTFORMAT_END
309
FORMATTEDCELLCONTENT_END
309
LINKEDTABLEDATACELL_END
  1
FORMATTEDTABLEDATACELL_BEGIN
300
CELLTABLEFORMAT
  1
TABLEFORMAT_BEGIN
 90
        1
170
     1
 91
      532
 92
        0
 62
   257
 93
        1
300
CONTENTFORMAT
  1
CONTENTFORMAT_BEGIN
 90
        0
 91
        0
 92
      512
 93
        0
300

 40
0.0
140
1.0
 94
        7
 62
     0
340
0
144
0.18
309
CONTENTFORMAT_END
171
     0
 94
        0
309
TABLEFORMAT_END
309
FORMATTEDTABLEDATACELL_END
  1
TABLECELL_BEGIN
 90
        0
 91
        0
309
TABLECELL_END
300
CELL
  1
LINKEDTABLEDATACELL_BEGIN
 90
        0
300

 91
        0
301
CUSTOMDATA
  1
DATAMAP_BEGIN
 90
        0
309
DATAMAP_END
 92
        0
 95
        1
302
CONTENT
  1
CELLCONTENT_BEGIN
 90
        1
300
VALUE
 90
        4
  1
{\fArial Cyr|b0|i0|c0;\H0.6667x;4,2
 91
        0
309
CELLCONTENT_END
  1
FORMATTEDCELLCONTENT_BEGIN
170
     1
300
CONTENTFORMAT
  1
CONTENTFORMAT_BEGIN
 90
        3
 91
        0
 92
        4
 93
        0
300

 40
0.0
140
1.0
 94
        1
 62
     0
340
0
144
0.18
309
CONTENTFORMAT_END
309
FORMATTEDCELLCONTENT_END
309
LINKEDTABLEDATACELL_END
  1
FORMATTEDTABLEDATACELL_BEGIN
300
CELLTABLEFORMAT
  1
TABLEFORMAT_BEGIN
 90
        1
170
     1
 91
      532
 92
        0
 62
   257
 93
        1
300
CONTENTFORMAT
  1
CONTENTFORMAT_BEGIN
 90
        0
 91
        0
 92
      512
 93
        0
300

 40
0.0
140
1.0
 94
        8
 62
     0
340
0
144
0.18
309
CONTENTFORMAT_END
171
     0
 94
        0
309
TABLEFORMAT_END
309
FORMATTEDTABLEDATACELL_END
  1
TABLECELL_BEGIN
 90
        0
 91
        0
309
TABLECELL_END
300
CELL
  1
LINKEDTABLEDATACELL_BEGIN
 90
        0
300

 91
        0
301
CUSTOMDATA
  1
DATAMAP_BEGIN
 90
        0
309
DATAMAP_END
 92
        0
 95
        1
302
CONTENT
  1
CELLCONTENT_BEGIN
 90
        1
300
VALUE
 90
        4
  1
{\fArial Cyr|b0|i0|c0;\H0.6667x;0,54
 91
        0
309
CELLCONTENT_END
  1
FORMATTEDCELLCONTENT_BEGIN
170
     1
300
CONTENTFORMAT
  1
CONTENTFORMAT_BEGIN
 90
        3
 91
        0
 92
        4
 93
        0
300

 40
0.0
140
1.0
 94
        1
 62
     0
340
0
144
0.18
309
CONTENTFORMAT_END
309
FORMATTEDCELLCONTENT_END
309
LINKEDTABLEDATACELL_END
  1
FORMATTEDTABLEDATACELL_BEGIN
300
CELLTABLEFORMAT
  1
TABLEFORMAT_BEGIN
 90
        1
170
     1
 91
      532
 92
        0
 62
   257
 93
        1
300
CONTENTFORMAT
  1
CONTENTFORMAT_BEGIN
 90
        0
 91
        0
 92
      512
 93
        0
300

 40
0.0
140
1.0
 94
        8
 62
     0
340
0
144
0.18
309
CONTENTFORMAT_END
171
     0
 94
        0
309
TABLEFORMAT_END
309
FORMATTEDTABLEDATACELL_END
  1
TABLECELL_BEGIN
 90
        0
 91
        0
309
TABLECELL_END
300
CELL
  1
LINKEDTABLEDATACELL_BEGIN
 90
        0
300

 91
        0
301
CUSTOMDATA
  1
DATAMAP_BEGIN
 90
        0
309
DATAMAP_END
 92
        0
 95
        1
302
CONTENT
  1
CELLCONTENT_BEGIN
 90
        1
300
VALUE
 90
        4
  1
{\fArial Cyr|b0|i0|c0;\H0.6667x;0,92
 91
        0
309
CELLCONTENT_END
  1
FORMATTEDCELLCONTENT_BEGIN
170
     1
300
CONTENTFORMAT
  1
CONTENTFORMAT_BEGIN
 90
        3
 91
        0
 92
        4
 93
        0
300

 40
0.0
140
1.0
 94
        1
 62
     0
340
0
144
0.18
309
CONTENTFORMAT_END
309
FORMATTEDCELLCONTENT_END
309
LINKEDTABLEDATACELL_END
  1
FORMATTEDTABLEDATACELL_BEGIN
300
CELLTABLEFORMAT
  1
TABLEFORMAT_BEGIN
 90
        1
170
     1
 91
      532
 92
        0
 62
   257
 93
        1
300
CONTENTFORMAT
  1
CONTENTFORMAT_BEGIN
 90
        0
 91
        0
 92
      512
 93
        0
300

 40
0.0
140
1.0
 94
        8
 62
     0
340
0
144
0.18
309
CONTENTFORMAT_END
171
     0
 94
        0
309
TABLEFORMAT_END
309
FORMATTEDTABLEDATACELL_END
  1
TABLECELL_BEGIN
 90
        0
 91
        0
309
TABLECELL_END
 91
        0
301
CUSTOMDATA
  1
DATAMAP_BEGIN
 90
        0
309
DATAMAP_END
309
LINKEDTABLEDATAROW_END
  1
FORMATTEDTABLEDATAROW_BEGIN
300
ROWTABLEFORMAT
  1
TABLEFORMAT_BEGIN
 90
        2
170
     0
309
TABLEFORMAT_END
309
FORMATTEDTABLEDATAROW_END
  1
TABLEROW_BEGIN
 90
        0
 40
5.291666666666666
309
TABLEROW_END
301
ROW
  1
LINKEDTABLEDATAROW_BEGIN
 90
        4
300
CELL
  1
LINKEDTABLEDATACELL_BEGIN
 90
        0
300

 91
        0
301
CUSTOMDATA
  1
DATAMAP_BEGIN
 90
        0
309
DATAMAP_END
 92
        0
 95
        1
302
CONTENT
  1
CELLCONTENT_BEGIN
 90
        1
300
VALUE
 90
        4
  1
{\fArial Cyr|b0|i0|c0;\H0.6667x;Плотность матрицы, кг/м3
 91
        0
309
CELLCONTENT_END
  1
FORMATTEDCELLCONTENT_BEGIN
170
     1
300
CONTENTFORMAT
  1
CONTENTFORMAT_BEGIN
 90
        3
 91
        0
 92
        4
 93
        0
300

 40
0.0
140
1.0
 94
        1
 62
     0
340
0
144
0.18
309
CONTENTFORMAT_END
309
FORMATTEDCELLCONTENT_END
309
LINKEDTABLEDATACELL_END
  1
FORMATTEDTABLEDATACELL_BEGIN
300
CELLTABLEFORMAT
  1
TABLEFORMAT_BEGIN
 90
        1
170
     1
 91
      532
 92
        0
 62
   257
 93
        1
300
CONTENTFORMAT
  1
CONTENTFORMAT_BEGIN
 90
        0
 91
        0
 92
      512
 93
        0
300

 40
0.0
140
1.0
 94
        7
 62
     0
340
0
144
0.18
309
CONTENTFORMAT_END
171
     0
 94
        0
309
TABLEFORMAT_END
309
FORMATTEDTABLEDATACELL_END
  1
TABLECELL_BEGIN
 90
        0
 91
        0
309
TABLECELL_END
300
CELL
  1
LINKEDTABLEDATACELL_BEGIN
 90
        0
300

 91
        0
301
CUSTOMDATA
  1
DATAMAP_BEGIN
 90
        0
309
DATAMAP_END
 92
        0
 95
        1
302
CONTENT
  1
CELLCONTENT_BEGIN
 90
        1
300
VALUE
 90
        4
  1
{\fArial Cyr|b0|i0|c0;\H0.6667x;1000
 91
        0
309
CELLCONTENT_END
  1
FORMATTEDCELLCONTENT_BEGIN
170
     1
300
CONTENTFORMAT
  1
CONTENTFORMAT_BEGIN
 90
        3
 91
        0
 92
        4
 93
        0
300

 40
0.0
140
1.0
 94
        1
 62
     0
340
0
144
0.18
309
CONTENTFORMAT_END
309
FORMATTEDCELLCONTENT_END
309
LINKEDTABLEDATACELL_END
  1
FORMATTEDTABLEDATACELL_BEGIN
300
CELLTABLEFORMAT
  1
TABLEFORMAT_BEGIN
 90
        1
170
     1
 91
      532
 92
        0
 62
   257
 93
        1
300
CONTENTFORMAT
  1
CONTENTFORMAT_BEGIN
 90
        0
 91
        0
 92
      512
 93
        0
300

 40
0.0
140
1.0
 94
        8
 62
     0
340
0
144
0.18
309
CONTENTFORMAT_END
171
     0
 94
        0
309
TABLEFORMAT_END
309
FORMATTEDTABLEDATACELL_END
  1
TABLECELL_BEGIN
 90
        0
 91
        0
309
TABLECELL_END
300
CELL
  1
LINKEDTABLEDATACELL_BEGIN
 90
        0
300

 91
        0
301
CUSTOMDATA
  1
DATAMAP_BEGIN
 90
        0
309
DATAMAP_END
 92
        0
 95
        1
302
CONTENT
  1
CELLCONTENT_BEGIN
 90
        1
300
VALUE
 90
        4
  1
{\fArial Cyr|b0|i0|c0;\H0.6667x;7550
 91
        0
309
CELLCONTENT_END
  1
FORMATTEDCELLCONTENT_BEGIN
170
     1
300
CONTENTFORMAT
  1
CONTENTFORMAT_BEGIN
 90
        3
 91
        0
 92
        4
 93
        0
300

 40
0.0
140
1.0
 94
        1
 62
     0
340
0
144
0.18
309
CONTENTFORMAT_END
309
FORMATTEDCELLCONTENT_END
309
LINKEDTABLEDATACELL_END
  1
FORMATTEDTABLEDATACELL_BEGIN
300
CELLTABLEFORMAT
  1
TABLEFORMAT_BEGIN
 90
        1
170
     1
 91
      532
 92
        0
 62
   257
 93
        1
300
CONTENTFORMAT
  1
CONTENTFORMAT_BEGIN
 90
        0
 91
        0
 92
      512
 93
        0
300

 40
0.0
140
1.0
 94
        8
 62
     0
340
0
144
0.18
309
CONTENTFORMAT_END
171
     0
 94
        0
309
TABLEFORMAT_END
309
FORMATTEDTABLEDATACELL_END
  1
TABLECELL_BEGIN
 90
        0
 91
        0
309
TABLECELL_END
300
CELL
  1
LINKEDTABLEDATACELL_BEGIN
 90
        0
300

 91
        0
301
CUSTOMDATA
  1
DATAMAP_BEGIN
 90
        0
309
DATAMAP_END
 92
        0
 95
        1
302
CONTENT
  1
CELLCONTENT_BEGIN
 90
        1
300
VALUE
 90
        4
  1
{\fArial Cyr|b0|i0|c0;\H0.6667x;2720
 91
        0
309
CELLCONTENT_END
  1
FORMATTEDCELLCONTENT_BEGIN
170
     1
300
CONTENTFORMAT
  1
CONTENTFORMAT_BEGIN
 90
        3
 91
        0
 92
        4
 93
        0
300

 40
0.0
140
1.0
 94
        1
 62
     0
340
0
144
0.18
309
CONTENTFORMAT_END
309
FORMATTEDCELLCONTENT_END
309
LINKEDTABLEDATACELL_END
  1
FORMATTEDTABLEDATACELL_BEGIN
300
CELLTABLEFORMAT
  1
TABLEFORMAT_BEGIN
 90
        1
170
     1
 91
      532
 92
        0
 62
   257
 93
        1
300
CONTENTFORMAT
  1
CONTENTFORMAT_BEGIN
 90
        0
 91
        0
 92
      512
 93
        0
300

 40
0.0
140
1.0
 94
        8
 62
     0
340
0
144
0.18
309
CONTENTFORMAT_END
171
     0
 94
        0
309
TABLEFORMAT_END
309
FORMATTEDTABLEDATACELL_END
  1
TABLECELL_BEGIN
 90
        0
 91
        0
309
TABLECELL_END
 91
        0
301
CUSTOMDATA
  1
DATAMAP_BEGIN
 90
        0
309
DATAMAP_END
309
LINKEDTABLEDATAROW_END
  1
FORMATTEDTABLEDATAROW_BEGIN
300
ROWTABLEFORMAT
  1
TABLEFORMAT_BEGIN
 90
        2
170
     0
309
TABLEFORMAT_END
309
FORMATTEDTABLEDATAROW_END
  1
TABLEROW_BEGIN
 90
        0
 40
5.291666666666666
309
TABLEROW_END
301
ROW
  1
LINKEDTABLEDATAROW_BEGIN
 90
        4
300
CELL
  1
LINKEDTABLEDATACELL_BEGIN
 90
        0
300

 91
        0
301
CUSTOMDATA
  1
DATAMAP_BEGIN
 90
        0
309
DATAMAP_END
 92
        0
 95
        1
302
CONTENT
  1
CELLCONTENT_BEGIN
 90
        1
300
VALUE
 90
        4
  1
{\fArial Cyr|b0|i0|c0;\H0.6667x;Коэф. Теплоотдачи в окр. среду, вт/м2/К
 91
        0
309
CELLCONTENT_END
  1
FORMATTEDCELLCONTENT_BEGIN
170
     1
300
CONTENTFORMAT
  1
CONTENTFORMAT_BEGIN
 90
        3
 91
        0
 92
        4
 93
        0
300

 40
0.0
140
1.0
 94
        1
 62
     0
340
0
144
0.18
309
CONTENTFORMAT_END
309
FORMATTEDCELLCONTENT_END
309
LINKEDTABLEDATACELL_END
  1
FORMATTEDTABLEDATACELL_BEGIN
300
CELLTABLEFORMAT
  1
TABLEFORMAT_BEGIN
 90
        1
170
     1
 91
      532
 92
        0
 62
   257
 93
        1
300
CONTENTFORMAT
  1
CONTENTFORMAT_BEGIN
 90
        0
 91
        0
 92
      512
 93
        0
300

 40
0.0
140
1.0
 94
        7
 62
     0
340
0
144
0.18
309
CONTENTFORMAT_END
171
     0
 94
        0
309
TABLEFORMAT_END
309
FORMATTEDTABLEDATACELL_END
  1
TABLECELL_BEGIN
 90
        0
 91
        0
309
TABLECELL_END
300
CELL
  1
LINKEDTABLEDATACELL_BEGIN
 90
        0
300

 91
        0
301
CUSTOMDATA
  1
DATAMAP_BEGIN
 90
        0
309
DATAMAP_END
 92
        0
 95
        1
302
CONTENT
  1
CELLCONTENT_BEGIN
 90
        1
300
VALUE
 90
        4
  1
{\fArial Cyr|b0|i0|c0;\H0.6667x;5
 91
        0
309
CELLCONTENT_END
  1
FORMATTEDCELLCONTENT_BEGIN
170
     1
300
CONTENTFORMAT
  1
CONTENTFORMAT_BEGIN
 90
        3
 91
        0
 92
        4
 93
        0
300

 40
0.0
140
1.0
 94
        1
 62
     0
340
0
144
0.18
309
CONTENTFORMAT_END
309
FORMATTEDCELLCONTENT_END
309
LINKEDTABLEDATACELL_END
  1
FORMATTEDTABLEDATACELL_BEGIN
300
CELLTABLEFORMAT
  1
TABLEFORMAT_BEGIN
 90
        1
170
     1
 91
      532
 92
        0
 62
   257
 93
        1
300
CONTENTFORMAT
  1
CONTENTFORMAT_BEGIN
 90
        0
 91
        0
 92
      512
 93
        0
300

 40
0.0
140
1.0
 94
        8
 62
     0
340
0
144
0.18
309
CONTENTFORMAT_END
171
     0
 94
        0
309
TABLEFORMAT_END
309
FORMATTEDTABLEDATACELL_END
  1
TABLECELL_BEGIN
 90
        0
 91
        0
309
TABLECELL_END
300
CELL
  1
LINKEDTABLEDATACELL_BEGIN
 90
        0
300

 91
        0
301
CUSTOMDATA
  1
DATAMAP_BEGIN
 90
        0
309
DATAMAP_END
 92
        0
 95
        1
302
CONTENT
  1
CELLCONTENT_BEGIN
 90
        1
300
VALUE
 90
        4
  1
{\fArial Cyr|b0|i0|c0;\H0.6667x;5
 91
        0
309
CELLCONTENT_END
  1
FORMATTEDCELLCONTENT_BEGIN
170
     1
300
CONTENTFORMAT
  1
CONTENTFORMAT_BEGIN
 90
        3
 91
        0
 92
        4
 93
        0
300

 40
0.0
140
1.0
 94
        1
 62
     0
340
0
144
0.18
309
CONTENTFORMAT_END
309
FORMATTEDCELLCONTENT_END
309
LINKEDTABLEDATACELL_END
  1
FORMATTEDTABLEDATACELL_BEGIN
300
CELLTABLEFORMAT
  1
TABLEFORMAT_BEGIN
 90
        1
170
     1
 91
      532
 92
        0
 62
   257
 93
        1
300
CONTENTFORMAT
  1
CONTENTFORMAT_BEGIN
 90
        0
 91
        0
 92
      512
 93
        0
300

 40
0.0
140
1.0
 94
        8
 62
     0
340
0
144
0.18
309
CONTENTFORMAT_END
171
     0
 94
        0
309
TABLEFORMAT_END
309
FORMATTEDTABLEDATACELL_END
  1
TABLECELL_BEGIN
 90
        0
 91
        0
309
TABLECELL_END
300
CELL
  1
LINKEDTABLEDATACELL_BEGIN
 90
        0
300

 91
        0
301
CUSTOMDATA
  1
DATAMAP_BEGIN
 90
        0
309
DATAMAP_END
 92
        0
 95
        1
302
CONTENT
  1
CELLCONTENT_BEGIN
 90
        1
300
VALUE
 90
        4
  1
{\fArial Cyr|b0|i0|c0;\H0.6667x;5
 91
        0
309
CELLCONTENT_END
  1
FORMATTEDCELLCONTENT_BEGIN
170
     1
300
CONTENTFORMAT
  1
CONTENTFORMAT_BEGIN
 90
        3
 91
        0
 92
        4
 93
        0
300

 40
0.0
140
1.0
 94
        1
 62
     0
340
0
144
0.18
309
CONTENTFORMAT_END
309
FORMATTEDCELLCONTENT_END
309
LINKEDTABLEDATACELL_END
  1
FORMATTEDTABLEDATACELL_BEGIN
300
CELLTABLEFORMAT
  1
TABLEFORMAT_BEGIN
 90
        1
170
     1
 91
      532
 92
        0
 62
   257
 93
        1
300
CONTENTFORMAT
  1
CONTENTFORMAT_BEGIN
 90
        0
 91
        0
 92
      512
 93
        0
300

 40
0.0
140
1.0
 94
        8
 62
     0
340
0
144
0.18
309
CONTENTFORMAT_END
171
     0
 94
        0
309
TABLEFORMAT_END
309
FORMATTEDTABLEDATACELL_END
  1
TABLECELL_BEGIN
 90
        0
 91
        0
309
TABLECELL_END
 91
        0
301
CUSTOMDATA
  1
DATAMAP_BEGIN
 90
        0
309
DATAMAP_END
309
LINKEDTABLEDATAROW_END
  1
FORMATTEDTABLEDATAROW_BEGIN
300
ROWTABLEFORMAT
  1
TABLEFORMAT_BEGIN
 90
        2
170
     0
309
TABLEFORMAT_END
309
FORMATTEDTABLEDATAROW_END
  1
TABLEROW_BEGIN
 90
        0
 40
5.291666666666666
309
TABLEROW_END
301
ROW
  1
LINKEDTABLEDATAROW_BEGIN
 90
        4
300
CELL
  1
LINKEDTABLEDATACELL_BEGIN
 90
        0
300

 91
        0
301
CUSTOMDATA
  1
DATAMAP_BEGIN
 90
        0
309
DATAMAP_END
 92
        0
 95
        1
302
CONTENT
  1
CELLCONTENT_BEGIN
 90
        1
300
VALUE
 90
        4
  1
{\fArial Cyr|b0|i0|c0;\H0.6667x;Толщина изоляции, мм
 91
        0
309
CELLCONTENT_END
  1
FORMATTEDCELLCONTENT_BEGIN
170
     1
300
CONTENTFORMAT
  1
CONTENTFORMAT_BEGIN
 90
        3
 91
        0
 92
        4
 93
        0
300

 40
0.0
140
1.0
 94
        1
 62
     0
340
0
144
0.18
309
CONTENTFORMAT_END
309
FORMATTEDCELLCONTENT_END
309
LINKEDTABLEDATACELL_END
  1
FORMATTEDTABLEDATACELL_BEGIN
300
CELLTABLEFORMAT
  1
TABLEFORMAT_BEGIN
 90
        1
170
     1
 91
      532
 92
        0
 62
   257
 93
        1
300
CONTENTFORMAT
  1
CONTENTFORMAT_BEGIN
 90
        0
 91
        0
 92
      512
 93
        0
300

 40
0.0
140
1.0
 94
        7
 62
     0
340
0
144
0.18
309
CONTENTFORMAT_END
171
     0
 94
        0
309
TABLEFORMAT_END
309
FORMATTEDTABLEDATACELL_END
  1
TABLECELL_BEGIN
 90
        0
 91
        0
309
TABLECELL_END
300
CELL
  1
LINKEDTABLEDATACELL_BEGIN
 90
        0
300

 91
        0
301
CUSTOMDATA
  1
DATAMAP_BEGIN
 90
        0
309
DATAMAP_END
 92
        0
 95
        1
302
CONTENT
  1
CELLCONTENT_BEGIN
 90
        1
300
VALUE
 90
        4
  1
{\fArial Cyr|b0|i0|c0;\H0.6667x;50
 91
        0
309
CELLCONTENT_END
  1
FORMATTEDCELLCONTENT_BEGIN
170
     1
300
CONTENTFORMAT
  1
CONTENTFORMAT_BEGIN
 90
        3
 91
        0
 92
        4
 93
        0
300

 40
0.0
140
1.0
 94
        1
 62
     0
340
0
144
0.18
309
CONTENTFORMAT_END
309
FORMATTEDCELLCONTENT_END
309
LINKEDTABLEDATACELL_END
  1
FORMATTEDTABLEDATACELL_BEGIN
300
CELLTABLEFORMAT
  1
TABLEFORMAT_BEGIN
 90
        1
170
     1
 91
      532
 92
        0
 62
   257
 93
        1
300
CONTENTFORMAT
  1
CONTENTFORMAT_BEGIN
 90
        0
 91
        0
 92
      512
 93
        0
300

 40
0.0
140
1.0
 94
        8
 62
     0
340
0
144
0.18
309
CONTENTFORMAT_END
171
     0
 94
        0
309
TABLEFORMAT_END
309
FORMATTEDTABLEDATACELL_END
  1
TABLECELL_BEGIN
 90
        0
 91
        0
309
TABLECELL_END
300
CELL
  1
LINKEDTABLEDATACELL_BEGIN
 90
        0
300

 91
        0
301
CUSTOMDATA
  1
DATAMAP_BEGIN
 90
        0
309
DATAMAP_END
 92
        0
 95
        1
302
CONTENT
  1
CELLCONTENT_BEGIN
 90
        1
300
VALUE
 90
        4
  1
{\fArial Cyr|b0|i0|c0;\H0.6667x;50
 91
        0
309
CELLCONTENT_END
  1
FORMATTEDCELLCONTENT_BEGIN
170
     1
300
CONTENTFORMAT
  1
CONTENTFORMAT_BEGIN
 90
        3
 91
        0
 92
        4
 93
        0
300

 40
0.0
140
1.0
 94
        1
 62
     0
340
0
144
0.18
309
CONTENTFORMAT_END
309
FORMATTEDCELLCONTENT_END
309
LINKEDTABLEDATACELL_END
  1
FORMATTEDTABLEDATACELL_BEGIN
300
CELLTABLEFORMAT
  1
TABLEFORMAT_BEGIN
 90
        1
170
     1
 91
      532
 92
        0
 62
   257
 93
        1
300
CONTENTFORMAT
  1
CONTENTFORMAT_BEGIN
 90
        0
 91
        0
 92
      512
 93
        0
300

 40
0.0
140
1.0
 94
        8
 62
     0
340
0
144
0.18
309
CONTENTFORMAT_END
171
     0
 94
        0
309
TABLEFORMAT_END
309
FORMATTEDTABLEDATACELL_END
  1
TABLECELL_BEGIN
 90
        0
 91
        0
309
TABLECELL_END
300
CELL
  1
LINKEDTABLEDATACELL_BEGIN
 90
        0
300

 91
        0
301
CUSTOMDATA
  1
DATAMAP_BEGIN
 90
        0
309
DATAMAP_END
 92
        0
 95
        1
302
CONTENT
  1
CELLCONTENT_BEGIN
 90
        1
300
VALUE
 90
        4
  1
{\fArial Cyr|b0|i0|c0;\H0.6667x;50
 91
        0
309
CELLCONTENT_END
  1
FORMATTEDCELLCONTENT_BEGIN
170
     1
300
CONTENTFORMAT
  1
CONTENTFORMAT_BEGIN
 90
        3
 91
        0
 92
        4
 93
        0
300

 40
0.0
140
1.0
 94
        1
 62
     0
340
0
144
0.18
309
CONTENTFORMAT_END
309
FORMATTEDCELLCONTENT_END
309
LINKEDTABLEDATACELL_END
  1
FORMATTEDTABLEDATACELL_BEGIN
300
CELLTABLEFORMAT
  1
TABLEFORMAT_BEGIN
 90
        1
170
     1
 91
      532
 92
        0
 62
   257
 93
        1
300
CONTENTFORMAT
  1
CONTENTFORMAT_BEGIN
 90
        0
 91
        0
 92
      512
 93
        0
300

 40
0.0
140
1.0
 94
        8
 62
     0
340
0
144
0.18
309
CONTENTFORMAT_END
171
     0
 94
        0
309
TABLEFORMAT_END
309
FORMATTEDTABLEDATACELL_END
  1
TABLECELL_BEGIN
 90
        0
 91
        0
309
TABLECELL_END
 91
        0
301
CUSTOMDATA
  1
DATAMAP_BEGIN
 90
        0
309
DATAMAP_END
309
LINKEDTABLEDATAROW_END
  1
FORMATTEDTABLEDATAROW_BEGIN
300
ROWTABLEFORMAT
  1
TABLEFORMAT_BEGIN
 90
        2
170
     0
309
TABLEFORMAT_END
309
FORMATTEDTABLEDATAROW_END
  1
TABLEROW_BEGIN
 90
        0
 40
5.291666666666666
309
TABLEROW_END
301
ROW
  1
LINKEDTABLEDATAROW_BEGIN
 90
        4
300
CELL
  1
LINKEDTABLEDATACELL_BEGIN
 90
        0
300

 91
        0
301
CUSTOMDATA
  1
DATAMAP_BEGIN
 90
        0
309
DATAMAP_END
 92
        0
 95
        1
302
CONTENT
  1
CELLCONTENT_BEGIN
 90
        1
300
VALUE
 90
        4
  1
{\fArial Cyr|b0|i0|c0;\H0.6667x;Коэф. Теплопроводности изоляции, вт/м/К
 91
        0
309
CELLCONTENT_END
  1
FORMATTEDCELLCONTENT_BEGIN
170
     1
300
CONTENTFORMAT
  1
CONTENTFORMAT_BEGIN
 90
        3
 91
        0
 92
        4
 93
        0
300

 40
0.0
140
1.0
 94
        1
 62
     0
340
0
144
0.18
309
CONTENTFORMAT_END
309
FORMATTEDCELLCONTENT_END
309
LINKEDTABLEDATACELL_END
  1
FORMATTEDTABLEDATACELL_BEGIN
300
CELLTABLEFORMAT
  1
TABLEFORMAT_BEGIN
 90
        1
170
     1
 91
      532
 92
        0
 62
   257
 93
        1
300
CONTENTFORMAT
  1
CONTENTFORMAT_BEGIN
 90
        0
 91
        0
 92
      512
 93
        0
300

 40
0.0
140
1.0
 94
        7
 62
     0
340
0
144
0.18
309
CONTENTFORMAT_END
171
     0
 94
        0
309
TABLEFORMAT_END
309
FORMATTEDTABLEDATACELL_END
  1
TABLECELL_BEGIN
 90
        0
 91
        0
309
TABLECELL_END
300
CELL
  1
LINKEDTABLEDATACELL_BEGIN
 90
        0
300

 91
        0
301
CUSTOMDATA
  1
DATAMAP_BEGIN
 90
        0
309
DATAMAP_END
 92
        0
 95
        1
302
CONTENT
  1
CELLCONTENT_BEGIN
 90
        1
300
VALUE
 90
        4
  1
{\fArial Cyr|b0|i0|c0;\H0.6667x;0,05
 91
        0
309
CELLCONTENT_END
  1
FORMATTEDCELLCONTENT_BEGIN
170
     1
300
CONTENTFORMAT
  1
CONTENTFORMAT_BEGIN
 90
        3
 91
        0
 92
        4
 93
        0
300

 40
0.0
140
1.0
 94
        1
 62
     0
340
0
144
0.18
309
CONTENTFORMAT_END
309
FORMATTEDCELLCONTENT_END
309
LINKEDTABLEDATACELL_END
  1
FORMATTEDTABLEDATACELL_BEGIN
300
CELLTABLEFORMAT
  1
TABLEFORMAT_BEGIN
 90
        1
170
     1
 91
      532
 92
        0
 62
   257
 93
        1
300
CONTENTFORMAT
  1
CONTENTFORMAT_BEGIN
 90
        0
 91
        0
 92
      512
 93
        0
300

 40
0.0
140
1.0
 94
        8
 62
     0
340
0
144
0.18
309
CONTENTFORMAT_END
171
     0
 94
        0
309
TABLEFORMAT_END
309
FORMATTEDTABLEDATACELL_END
  1
TABLECELL_BEGIN
 90
        0
 91
        0
309
TABLECELL_END
300
CELL
  1
LINKEDTABLEDATACELL_BEGIN
 90
        0
300

 91
        0
301
CUSTOMDATA
  1
DATAMAP_BEGIN
 90
        0
309
DATAMAP_END
 92
        0
 95
        1
302
CONTENT
  1
CELLCONTENT_BEGIN
 90
        1
300
VALUE
 90
        4
  1
{\fArial Cyr|b0|i0|c0;\H0.6667x;0,05
 91
        0
309
CELLCONTENT_END
  1
FORMATTEDCELLCONTENT_BEGIN
170
     1
300
CONTENTFORMAT
  1
CONTENTFORMAT_BEGIN
 90
        3
 91
        0
 92
        4
 93
        0
300

 40
0.0
140
1.0
 94
        1
 62
     0
340
0
144
0.18
309
CONTENTFORMAT_END
309
FORMATTEDCELLCONTENT_END
309
LINKEDTABLEDATACELL_END
  1
FORMATTEDTABLEDATACELL_BEGIN
300
CELLTABLEFORMAT
  1
TABLEFORMAT_BEGIN
 90
        1
170
     1
 91
      532
 92
        0
 62
   257
 93
        1
300
CONTENTFORMAT
  1
CONTENTFORMAT_BEGIN
 90
        0
 91
        0
 92
      512
 93
        0
300

 40
0.0
140
1.0
 94
        8
 62
     0
340
0
144
0.18
309
CONTENTFORMAT_END
171
     0
 94
        0
309
TABLEFORMAT_END
309
FORMATTEDTABLEDATACELL_END
  1
TABLECELL_BEGIN
 90
        0
 91
        0
309
TABLECELL_END
300
CELL
  1
LINKEDTABLEDATACELL_BEGIN
 90
        0
300

 91
        0
301
CUSTOMDATA
  1
DATAMAP_BEGIN
 90
        0
309
DATAMAP_END
 92
        0
 95
        1
302
CONTENT
  1
CELLCONTENT_BEGIN
 90
        1
300
VALUE
 90
        4
  1
{\fArial Cyr|b0|i0|c0;\H0.6667x;0,05
 91
        0
309
CELLCONTENT_END
  1
FORMATTEDCELLCONTENT_BEGIN
170
     1
300
CONTENTFORMAT
  1
CONTENTFORMAT_BEGIN
 90
        3
 91
        0
 92
        4
 93
        0
300

 40
0.0
140
1.0
 94
        1
 62
     0
340
0
144
0.18
309
CONTENTFORMAT_END
309
FORMATTEDCELLCONTENT_END
309
LINKEDTABLEDATACELL_END
  1
FORMATTEDTABLEDATACELL_BEGIN
300
CELLTABLEFORMAT
  1
TABLEFORMAT_BEGIN
 90
        1
170
     1
 91
      532
 92
        0
 62
   257
 93
        1
300
CONTENTFORMAT
  1
CONTENTFORMAT_BEGIN
 90
        0
 91
        0
 92
      512
 93
        0
300

 40
0.0
140
1.0
 94
        8
 62
     0
340
0
144
0.18
309
CONTENTFORMAT_END
171
     0
 94
        0
309
TABLEFORMAT_END
309
FORMATTEDTABLEDATACELL_END
  1
TABLECELL_BEGIN
 90
        0
 91
        0
309
TABLECELL_END
 91
        0
301
CUSTOMDATA
  1
DATAMAP_BEGIN
 90
        0
309
DATAMAP_END
309
LINKEDTABLEDATAROW_END
  1
FORMATTEDTABLEDATAROW_BEGIN
300
ROWTABLEFORMAT
  1
TABLEFORMAT_BEGIN
 90
        2
170
     0
309
TABLEFORMAT_END
309
FORMATTEDTABLEDATAROW_END
  1
TABLEROW_BEGIN
 90
        0
 40
5.291666666666666
309
TABLEROW_END
301
ROW
  1
LINKEDTABLEDATAROW_BEGIN
 90
        4
300
CELL
  1
LINKEDTABLEDATACELL_BEGIN
 90
        0
300

 91
        0
301
CUSTOMDATA
  1
DATAMAP_BEGIN
 90
        0
309
DATAMAP_END
 92
        0
 95
        1
302
CONTENT
  1
CELLCONTENT_BEGIN
 90
        1
300
VALUE
 90
        4
  1
{\fArial Cyr|b0|i0|c0;\H0.6667x;Мощность приемника тепла,  кВт
 91
        0
309
CELLCONTENT_END
  1
FORMATTEDCELLCONTENT_BEGIN
170
     1
300
CONTENTFORMAT
  1
CONTENTFORMAT_BEGIN
 90
        3
 91
        0
 92
        4
 93
        0
300

 40
0.0
140
1.0
 94
        1
 62
     0
340
0
144
0.18
309
CONTENTFORMAT_END
309
FORMATTEDCELLCONTENT_END
309
LINKEDTABLEDATACELL_END
  1
FORMATTEDTABLEDATACELL_BEGIN
300
CELLTABLEFORMAT
  1
TABLEFORMAT_BEGIN
 90
        1
170
     1
 91
      532
 92
        0
 62
   257
 93
        1
300
CONTENTFORMAT
  1
CONTENTFORMAT_BEGIN
 90
        0
 91
        0
 92
      512
 93
        0
300

 40
0.0
140
1.0
 94
        7
 62
     0
340
0
144
0.18
309
CONTENTFORMAT_END
171
     0
 94
        0
309
TABLEFORMAT_END
309
FORMATTEDTABLEDATACELL_END
  1
TABLECELL_BEGIN
 90
        0
 91
        0
309
TABLECELL_END
300
CELL
  1
LINKEDTABLEDATACELL_BEGIN
 90
        0
300

 91
        0
301
CUSTOMDATA
  1
DATAMAP_BEGIN
 90
        0
309
DATAMAP_END
 92
        0
 95
        1
302
CONTENT
  1
CELLCONTENT_BEGIN
 90
        1
300
VALUE
 90
        4
  1
{\fArial Cyr|b0|i0|c0;\H0.6667x;10
 91
        0
309
CELLCONTENT_END
  1
FORMATTEDCELLCONTENT_BEGIN
170
     1
300
CONTENTFORMAT
  1
CONTENTFORMAT_BEGIN
 90
        3
 91
        0
 92
        4
 93
        0
300

 40
0.0
140
1.0
 94
        1
 62
     0
340
0
144
0.18
309
CONTENTFORMAT_END
309
FORMATTEDCELLCONTENT_END
309
LINKEDTABLEDATACELL_END
  1
FORMATTEDTABLEDATACELL_BEGIN
300
CELLTABLEFORMAT
  1
TABLEFORMAT_BEGIN
 90
        1
170
     1
 91
      532
 92
        0
 62
   257
 93
        1
300
CONTENTFORMAT
  1
CONTENTFORMAT_BEGIN
 90
        0
 91
        0
 92
      512
 93
        0
300

 40
0.0
140
1.0
 94
        8
 62
     0
340
0
144
0.18
309
CONTENTFORMAT_END
171
     0
 94
        0
309
TABLEFORMAT_END
309
FORMATTEDTABLEDATACELL_END
  1
TABLECELL_BEGIN
 90
        0
 91
        0
309
TABLECELL_END
300
CELL
  1
LINKEDTABLEDATACELL_BEGIN
 90
        0
300

 91
        0
301
CUSTOMDATA
  1
DATAMAP_BEGIN
 90
        0
309
DATAMAP_END
 92
        0
 95
        1
302
CONTENT
  1
CELLCONTENT_BEGIN
 90
        1
300
VALUE
 90
        4
  1
{\fArial Cyr|b0|i0|c0;\H0.6667x;4
 91
        0
309
CELLCONTENT_END
  1
FORMATTEDCELLCONTENT_BEGIN
170
     1
300
CONTENTFORMAT
  1
CONTENTFORMAT_BEGIN
 90
        3
 91
        0
 92
        4
 93
        0
300

 40
0.0
140
1.0
 94
        1
 62
     0
340
0
144
0.18
309
CONTENTFORMAT_END
309
FORMATTEDCELLCONTENT_END
309
LINKEDTABLEDATACELL_END
  1
FORMATTEDTABLEDATACELL_BEGIN
300
CELLTABLEFORMAT
  1
TABLEFORMAT_BEGIN
 90
        1
170
     1
 91
      532
 92
        0
 62
   257
 93
        1
300
CONTENTFORMAT
  1
CONTENTFORMAT_BEGIN
 90
        0
 91
        0
 92
      512
 93
        0
300

 40
0.0
140
1.0
 94
        8
 62
     0
340
0
144
0.18
309
CONTENTFORMAT_END
171
     0
 94
        0
309
TABLEFORMAT_END
309
FORMATTEDTABLEDATACELL_END
  1
TABLECELL_BEGIN
 90
        0
 91
        0
309
TABLECELL_END
300
CELL
  1
LINKEDTABLEDATACELL_BEGIN
 90
        0
300

 91
        0
301
CUSTOMDATA
  1
DATAMAP_BEGIN
 90
        0
309
DATAMAP_END
 92
        0
 95
        1
302
CONTENT
  1
CELLCONTENT_BEGIN
 90
        1
300
VALUE
 90
        4
  1
{\fArial Cyr|b0|i0|c0;\H0.6667x;4
 91
        0
309
CELLCONTENT_END
  1
FORMATTEDCELLCONTENT_BEGIN
170
     1
300
CONTENTFORMAT
  1
CONTENTFORMAT_BEGIN
 90
        3
 91
        0
 92
        4
 93
        0
300

 40
0.0
140
1.0
 94
        1
 62
     0
340
0
144
0.18
309
CONTENTFORMAT_END
309
FORMATTEDCELLCONTENT_END
309
LINKEDTABLEDATACELL_END
  1
FORMATTEDTABLEDATACELL_BEGIN
300
CELLTABLEFORMAT
  1
TABLEFORMAT_BEGIN
 90
        1
170
     1
 91
      532
 92
        0
 62
   257
 93
        1
300
CONTENTFORMAT
  1
CONTENTFORMAT_BEGIN
 90
        0
 91
        0
 92
      512
 93
        0
300

 40
0.0
140
1.0
 94
        8
 62
     0
340
0
144
0.18
309
CONTENTFORMAT_END
171
     0
 94
        0
309
TABLEFORMAT_END
309
FORMATTEDTABLEDATACELL_END
  1
TABLECELL_BEGIN
 90
        0
 91
        0
309
TABLECELL_END
 91
        0
301
CUSTOMDATA
  1
DATAMAP_BEGIN
 90
        0
309
DATAMAP_END
309
LINKEDTABLEDATAROW_END
  1
FORMATTEDTABLEDATAROW_BEGIN
300
ROWTABLEFORMAT
  1
TABLEFORMAT_BEGIN
 90
        2
170
     0
309
TABLEFORMAT_END
309
FORMATTEDTABLEDATAROW_END
  1
TABLEROW_BEGIN
 90
        0
 40
5.291666666666666
309
TABLEROW_END
301
ROW
  1
LINKEDTABLEDATAROW_BEGIN
 90
        4
300
CELL
  1
LINKEDTABLEDATACELL_BEGIN
 90
        0
300

 91
        0
301
CUSTOMDATA
  1
DATAMAP_BEGIN
 90
        0
309
DATAMAP_END
 92
        0
 95
        1
302
CONTENT
  1
CELLCONTENT_BEGIN
 90
        1
300
VALUE
 90
        4
  1
{\fArial Cyr|b0|i0|c0;\H0.6667x;Мощность источника тепла, квт
 91
        0
309
CELLCONTENT_END
  1
FORMATTEDCELLCONTENT_BEGIN
170
     1
300
CONTENTFORMAT
  1
CONTENTFORMAT_BEGIN
 90
        3
 91
        0
 92
        4
 93
        0
300

 40
0.0
140
1.0
 94
        1
 62
     0
340
0
144
0.18
309
CONTENTFORMAT_END
309
FORMATTEDCELLCONTENT_END
309
LINKEDTABLEDATACELL_END
  1
FORMATTEDTABLEDATACELL_BEGIN
300
CELLTABLEFORMAT
  1
TABLEFORMAT_BEGIN
 90
        1
170
     1
 91
      532
 92
        0
 62
   257
 93
        1
300
CONTENTFORMAT
  1
CONTENTFORMAT_BEGIN
 90
        0
 91
        0
 92
      512
 93
        0
300

 40
0.0
140
1.0
 94
        7
 62
     0
340
0
144
0.18
309
CONTENTFORMAT_END
171
     0
 94
        0
309
TABLEFORMAT_END
309
FORMATTEDTABLEDATACELL_END
  1
TABLECELL_BEGIN
 90
        0
 91
        0
309
TABLECELL_END
300
CELL
  1
LINKEDTABLEDATACELL_BEGIN
 90
        0
300

 91
        0
301
CUSTOMDATA
  1
DATAMAP_BEGIN
 90
        0
309
DATAMAP_END
 92
        0
 95
        1
302
CONTENT
  1
CELLCONTENT_BEGIN
 90
        1
300
VALUE
 90
        4
  1
{\fArial Cyr|b0|i0|c0;\H0.6667x;16
 91
        0
309
CELLCONTENT_END
  1
FORMATTEDCELLCONTENT_BEGIN
170
     1
300
CONTENTFORMAT
  1
CONTENTFORMAT_BEGIN
 90
        3
 91
        0
 92
        4
 93
        0
300

 40
0.0
140
1.0
 94
        1
 62
     0
340
0
144
0.18
309
CONTENTFORMAT_END
309
FORMATTEDCELLCONTENT_END
309
LINKEDTABLEDATACELL_END
  1
FORMATTEDTABLEDATACELL_BEGIN
300
CELLTABLEFORMAT
  1
TABLEFORMAT_BEGIN
 90
        1
170
     1
 91
      532
 92
        0
 62
   257
 93
        1
300
CONTENTFORMAT
  1
CONTENTFORMAT_BEGIN
 90
        0
 91
        0
 92
      512
 93
        0
300

 40
0.0
140
1.0
 94
        8
 62
     0
340
0
144
0.18
309
CONTENTFORMAT_END
171
     0
 94
        0
309
TABLEFORMAT_END
309
FORMATTEDTABLEDATACELL_END
  1
TABLECELL_BEGIN
 90
        0
 91
        0
309
TABLECELL_END
300
CELL
  1
LINKEDTABLEDATACELL_BEGIN
 90
        0
300

 91
        0
301
CUSTOMDATA
  1
DATAMAP_BEGIN
 90
        0
309
DATAMAP_END
 92
        0
 95
        1
302
CONTENT
  1
CELLCONTENT_BEGIN
 90
        1
300
VALUE
 90
        4
  1
{\fArial Cyr|b0|i0|c0;\H0.6667x;10
 91
        0
309
CELLCONTENT_END
  1
FORMATTEDCELLCONTENT_BEGIN
170
     1
300
CONTENTFORMAT
  1
CONTENTFORMAT_BEGIN
 90
        3
 91
        0
 92
        4
 93
        0
300

 40
0.0
140
1.0
 94
        1
 62
     0
340
0
144
0.18
309
CONTENTFORMAT_END
309
FORMATTEDCELLCONTENT_END
309
LINKEDTABLEDATACELL_END
  1
FORMATTEDTABLEDATACELL_BEGIN
300
CELLTABLEFORMAT
  1
TABLEFORMAT_BEGIN
 90
        1
170
     1
 91
      532
 92
        0
 62
   257
 93
        1
300
CONTENTFORMAT
  1
CONTENTFORMAT_BEGIN
 90
        0
 91
        0
 92
      512
 93
        0
300

 40
0.0
140
1.0
 94
        8
 62
     0
340
0
144
0.18
309
CONTENTFORMAT_END
171
     0
 94
        0
309
TABLEFORMAT_END
309
FORMATTEDTABLEDATACELL_END
  1
TABLECELL_BEGIN
 90
        0
 91
        0
309
TABLECELL_END
300
CELL
  1
LINKEDTABLEDATACELL_BEGIN
 90
        0
300

 91
        0
301
CUSTOMDATA
  1
DATAMAP_BEGIN
 90
        0
309
DATAMAP_END
 92
        0
 95
        1
302
CONTENT
  1
CELLCONTENT_BEGIN
 90
        1
300
VALUE
 90
        4
  1
{\fArial Cyr|b0|i0|c0;\H0.6667x;10
 91
        0
309
CELLCONTENT_END
  1
FORMATTEDCELLCONTENT_BEGIN
170
     1
300
CONTENTFORMAT
  1
CONTENTFORMAT_BEGIN
 90
        3
 91
        0
 92
        4
 93
        0
300

 40
0.0
140
1.0
 94
        1
 62
     0
340
0
144
0.18
309
CONTENTFORMAT_END
309
FORMATTEDCELLCONTENT_END
309
LINKEDTABLEDATACELL_END
  1
FORMATTEDTABLEDATACELL_BEGIN
300
CELLTABLEFORMAT
  1
TABLEFORMAT_BEGIN
 90
        1
170
     1
 91
      532
 92
        0
 62
   257
 93
        1
300
CONTENTFORMAT
  1
CONTENTFORMAT_BEGIN
 90
        0
 91
        0
 92
      512
 93
        0
300

 40
0.0
140
1.0
 94
        8
 62
     0
340
0
144
0.18
309
CONTENTFORMAT_END
171
     0
 94
        0
309
TABLEFORMAT_END
309
FORMATTEDTABLEDATACELL_END
  1
TABLECELL_BEGIN
 90
        0
 91
        0
309
TABLECELL_END
 91
        0
301
CUSTOMDATA
  1
DATAMAP_BEGIN
 90
        0
309
DATAMAP_END
309
LINKEDTABLEDATAROW_END
  1
FORMATTEDTABLEDATAROW_BEGIN
300
ROWTABLEFORMAT
  1
TABLEFORMAT_BEGIN
 90
        2
170
     0
309
TABLEFORMAT_END
309
FORMATTEDTABLEDATAROW_END
  1
TABLEROW_BEGIN
 90
        0
 40
5.291666666666666
309
TABLEROW_END
301
ROW
  1
LINKEDTABLEDATAROW_BEGIN
 90
        4
300
CELL
  1
LINKEDTABLEDATACELL_BEGIN
 90
        0
300

 91
        0
301
CUSTOMDATA
  1
DATAMAP_BEGIN
 90
        0
309
DATAMAP_END
 92
        0
 95
        1
302
CONTENT
  1
CELLCONTENT_BEGIN
 90
        1
300
VALUE
 90
        4
  1
{\fArial Cyr|b0|i0|c0;\H0.6667x;Температура  начальная, оС
 91
        0
309
CELLCONTENT_END
  1
FORMATTEDCELLCONTENT_BEGIN
170
     1
300
CONTENTFORMAT
  1
CONTENTFORMAT_BEGIN
 90
        3
 91
        0
 92
        4
 93
        0
300

 40
0.0
140
1.0
 94
        1
 62
     0
340
0
144
0.18
309
CONTENTFORMAT_END
309
FORMATTEDCELLCONTENT_END
309
LINKEDTABLEDATACELL_END
  1
FORMATTEDTABLEDATACELL_BEGIN
300
CELLTABLEFORMAT
  1
TABLEFORMAT_BEGIN
 90
        1
170
     1
 91
      532
 92
        0
 62
   257
 93
        1
300
CONTENTFORMAT
  1
CONTENTFORMAT_BEGIN
 90
        0
 91
        0
 92
      512
 93
        0
300

 40
0.0
140
1.0
 94
        7
 62
     0
340
0
144
0.18
309
CONTENTFORMAT_END
171
     0
 94
        0
309
TABLEFORMAT_END
309
FORMATTEDTABLEDATACELL_END
  1
TABLECELL_BEGIN
 90
        0
 91
        0
309
TABLECELL_END
300
CELL
  1
LINKEDTABLEDATACELL_BEGIN
 90
        0
300

 91
        0
301
CUSTOMDATA
  1
DATAMAP_BEGIN
 90
        0
309
DATAMAP_END
 92
        0
 95
        1
302
CONTENT
  1
CELLCONTENT_BEGIN
 90
        1
300
VALUE
 90
        4
  1
{\fArial Cyr|b0|i0|c0;\H0.6667x;40
 91
        0
309
CELLCONTENT_END
  1
FORMATTEDCELLCONTENT_BEGIN
170
     1
300
CONTENTFORMAT
  1
CONTENTFORMAT_BEGIN
 90
        3
 91
        0
 92
        4
 93
        0
300

 40
0.0
140
1.0
 94
        1
 62
     0
340
0
144
0.18
309
CONTENTFORMAT_END
309
FORMATTEDCELLCONTENT_END
309
LINKEDTABLEDATACELL_END
  1
FORMATTEDTABLEDATACELL_BEGIN
300
CELLTABLEFORMAT
  1
TABLEFORMAT_BEGIN
 90
        1
170
     1
 91
      532
 92
        0
 62
   257
 93
        1
300
CONTENTFORMAT
  1
CONTENTFORMAT_BEGIN
 90
        0
 91
        0
 92
      512
 93
        0
300

 40
0.0
140
1.0
 94
        8
 62
     0
340
0
144
0.18
309
CONTENTFORMAT_END
171
     0
 94
        0
309
TABLEFORMAT_END
309
FORMATTEDTABLEDATACELL_END
  1
TABLECELL_BEGIN
 90
        0
 91
        0
309
TABLECELL_END
300
CELL
  1
LINKEDTABLEDATACELL_BEGIN
 90
        0
300

 91
        0
301
CUSTOMDATA
  1
DATAMAP_BEGIN
 90
        0
309
DATAMAP_END
 92
        0
 95
        1
302
CONTENT
  1
CELLCONTENT_BEGIN
 90
        1
300
VALUE
 90
        4
  1
{\fArial Cyr|b0|i0|c0;\H0.6667x;25
 91
        0
309
CELLCONTENT_END
  1
FORMATTEDCELLCONTENT_BEGIN
170
     1
300
CONTENTFORMAT
  1
CONTENTFORMAT_BEGIN
 90
        3
 91
        0
 92
        4
 93
        0
300

 40
0.0
140
1.0
 94
        1
 62
     0
340
0
144
0.18
309
CONTENTFORMAT_END
309
FORMATTEDCELLCONTENT_END
309
LINKEDTABLEDATACELL_END
  1
FORMATTEDTABLEDATACELL_BEGIN
300
CELLTABLEFORMAT
  1
TABLEFORMAT_BEGIN
 90
        1
170
     1
 91
      532
 92
        0
 62
   257
 93
        1
300
CONTENTFORMAT
  1
CONTENTFORMAT_BEGIN
 90
        0
 91
        0
 92
      512
 93
        0
300

 40
0.0
140
1.0
 94
        8
 62
     0
340
0
144
0.18
309
CONTENTFORMAT_END
171
     0
 94
        0
309
TABLEFORMAT_END
309
FORMATTEDTABLEDATACELL_END
  1
TABLECELL_BEGIN
 90
        0
 91
        0
309
TABLECELL_END
300
CELL
  1
LINKEDTABLEDATACELL_BEGIN
 90
        0
300

 91
        0
301
CUSTOMDATA
  1
DATAMAP_BEGIN
 90
        0
309
DATAMAP_END
 92
        0
 95
        1
302
CONTENT
  1
CELLCONTENT_BEGIN
 90
        1
300
VALUE
 90
        4
  1
{\fArial Cyr|b0|i0|c0;\H0.6667x;25
 91
        0
309
CELLCONTENT_END
  1
FORMATTEDCELLCONTENT_BEGIN
170
     1
300
CONTENTFORMAT
  1
CONTENTFORMAT_BEGIN
 90
        3
 91
        0
 92
        4
 93
        0
300

 40
0.0
140
1.0
 94
        1
 62
     0
340
0
144
0.18
309
CONTENTFORMAT_END
309
FORMATTEDCELLCONTENT_END
309
LINKEDTABLEDATACELL_END
  1
FORMATTEDTABLEDATACELL_BEGIN
300
CELLTABLEFORMAT
  1
TABLEFORMAT_BEGIN
 90
        1
170
     1
 91
      532
 92
        0
 62
   257
 93
        1
300
CONTENTFORMAT
  1
CONTENTFORMAT_BEGIN
 90
        0
 91
        0
 92
      512
 93
        0
300

 40
0.0
140
1.0
 94
        8
 62
     0
340
0
144
0.18
309
CONTENTFORMAT_END
171
     0
 94
        0
309
TABLEFORMAT_END
309
FORMATTEDTABLEDATACELL_END
  1
TABLECELL_BEGIN
 90
        0
 91
        0
309
TABLECELL_END
 91
        0
301
CUSTOMDATA
  1
DATAMAP_BEGIN
 90
        0
309
DATAMAP_END
309
LINKEDTABLEDATAROW_END
  1
FORMATTEDTABLEDATAROW_BEGIN
300
ROWTABLEFORMAT
  1
TABLEFORMAT_BEGIN
 90
        2
170
     0
309
TABLEFORMAT_END
309
FORMATTEDTABLEDATAROW_END
  1
TABLEROW_BEGIN
 90
        0
 40
5.291666666666666
309
TABLEROW_END
301
ROW
  1
LINKEDTABLEDATAROW_BEGIN
 90
        4
300
CELL
  1
LINKEDTABLEDATACELL_BEGIN
 90
        0
300

 91
        0
301
CUSTOMDATA
  1
DATAMAP_BEGIN
 90
        0
309
DATAMAP_END
 92
        0
 95
        1
302
CONTENT
  1
CELLCONTENT_BEGIN
 90
        1
300
VALUE
 90
        4
  1
{\fArial Cyr|b0|i0|c0;\H0.6667x;Температура  конечная, оС
 91
        0
309
CELLCONTENT_END
  1
FORMATTEDCELLCONTENT_BEGIN
170
     1
300
CONTENTFORMAT
  1
CONTENTFORMAT_BEGIN
 90
        3
 91
        0
 92
        4
 93
        0
300

 40
0.0
140
1.0
 94
        1
 62
     0
340
0
144
0.18
309
CONTENTFORMAT_END
309
FORMATTEDCELLCONTENT_END
309
LINKEDTABLEDATACELL_END
  1
FORMATTEDTABLEDATACELL_BEGIN
300
CELLTABLEFORMAT
  1
TABLEFORMAT_BEGIN
 90
        1
170
     1
 91
      532
 92
        0
 62
   257
 93
        1
300
CONTENTFORMAT
  1
CONTENTFORMAT_BEGIN
 90
        0
 91
        0
 92
      512
 93
        0
300

 40
0.0
140
1.0
 94
        7
 62
     0
340
0
144
0.18
309
CONTENTFORMAT_END
171
     0
 94
        0
309
TABLEFORMAT_END
309
FORMATTEDTABLEDATACELL_END
  1
TABLECELL_BEGIN
 90
        0
 91
        0
309
TABLECELL_END
300
CELL
  1
LINKEDTABLEDATACELL_BEGIN
 90
        0
300

 91
        0
301
CUSTOMDATA
  1
DATAMAP_BEGIN
 90
        0
309
DATAMAP_END
 92
        0
 95
        1
302
CONTENT
  1
CELLCONTENT_BEGIN
 90
        1
300
VALUE
 90
        4
  1
{\fArial Cyr|b0|i0|c0;\H0.6667x;65
 91
        0
309
CELLCONTENT_END
  1
FORMATTEDCELLCONTENT_BEGIN
170
     1
300
CONTENTFORMAT
  1
CONTENTFORMAT_BEGIN
 90
        3
 91
        0
 92
        4
 93
        0
300

 40
0.0
140
1.0
 94
        1
 62
     0
340
0
144
0.18
309
CONTENTFORMAT_END
309
FORMATTEDCELLCONTENT_END
309
LINKEDTABLEDATACELL_END
  1
FORMATTEDTABLEDATACELL_BEGIN
300
CELLTABLEFORMAT
  1
TABLEFORMAT_BEGIN
 90
        1
170
     1
 91
      532
 92
        0
 62
   257
 93
        1
300
CONTENTFORMAT
  1
CONTENTFORMAT_BEGIN
 90
        0
 91
        0
 92
      512
 93
        0
300

 40
0.0
140
1.0
 94
        8
 62
     0
340
0
144
0.18
309
CONTENTFORMAT_END
171
     0
 94
        0
309
TABLEFORMAT_END
309
FORMATTEDTABLEDATACELL_END
  1
TABLECELL_BEGIN
 90
        0
 91
        0
309
TABLECELL_END
300
CELL
  1
LINKEDTABLEDATACELL_BEGIN
 90
        0
300

 91
        0
301
CUSTOMDATA
  1
DATAMAP_BEGIN
 90
        0
309
DATAMAP_END
 92
        0
 95
        1
302
CONTENT
  1
CELLCONTENT_BEGIN
 90
        1
300
VALUE
 90
        4
  1
{\fArial Cyr|b0|i0|c0;\H0.6667x;30
 91
        0
309
CELLCONTENT_END
  1
FORMATTEDCELLCONTENT_BEGIN
170
     1
300
CONTENTFORMAT
  1
CONTENTFORMAT_BEGIN
 90
        3
 91
        0
 92
        4
 93
        0
300

 40
0.0
140
1.0
 94
        1
 62
     0
340
0
144
0.18
309
CONTENTFORMAT_END
309
FORMATTEDCELLCONTENT_END
309
LINKEDTABLEDATACELL_END
  1
FORMATTEDTABLEDATACELL_BEGIN
300
CELLTABLEFORMAT
  1
TABLEFORMAT_BEGIN
 90
        1
170
     1
 91
      532
 92
        0
 62
   257
 93
        1
300
CONTENTFORMAT
  1
CONTENTFORMAT_BEGIN
 90
        0
 91
        0
 92
      512
 93
        0
300

 40
0.0
140
1.0
 94
        8
 62
     0
340
0
144
0.18
309
CONTENTFORMAT_END
171
     0
 94
        0
309
TABLEFORMAT_END
309
FORMATTEDTABLEDATACELL_END
  1
TABLECELL_BEGIN
 90
        0
 91
        0
309
TABLECELL_END
300
CELL
  1
LINKEDTABLEDATACELL_BEGIN
 90
        0
300

 91
        0
301
CUSTOMDATA
  1
DATAMAP_BEGIN
 90
        0
309
DATAMAP_END
 92
        0
 95
        1
302
CONTENT
  1
CELLCONTENT_BEGIN
 90
        1
300
VALUE
 90
        4
  1
{\fArial Cyr|b0|i0|c0;\H0.6667x;30
 91
        0
309
CELLCONTENT_END
  1
FORMATTEDCELLCONTENT_BEGIN
170
     1
300
CONTENTFORMAT
  1
CONTENTFORMAT_BEGIN
 90
        3
 91
        0
 92
        4
 93
        0
300

 40
0.0
140
1.0
 94
        1
 62
     0
340
0
144
0.18
309
CONTENTFORMAT_END
309
FORMATTEDCELLCONTENT_END
309
LINKEDTABLEDATACELL_END
  1
FORMATTEDTABLEDATACELL_BEGIN
300
CELLTABLEFORMAT
  1
TABLEFORMAT_BEGIN
 90
        1
170
     1
 91
      532
 92
        0
 62
   257
 93
        1
300
CONTENTFORMAT
  1
CONTENTFORMAT_BEGIN
 90
        0
 91
        0
 92
      512
 93
        0
300

 40
0.0
140
1.0
 94
        8
 62
     0
340
0
144
0.18
309
CONTENTFORMAT_END
171
     0
 94
        0
309
TABLEFORMAT_END
309
FORMATTEDTABLEDATACELL_END
  1
TABLECELL_BEGIN
 90
        0
 91
        0
309
TABLECELL_END
 91
        0
301
CUSTOMDATA
  1
DATAMAP_BEGIN
 90
        0
309
DATAMAP_END
309
LINKEDTABLEDATAROW_END
  1
FORMATTEDTABLEDATAROW_BEGIN
300
ROWTABLEFORMAT
  1
TABLEFORMAT_BEGIN
 90
        2
170
     0
309
TABLEFORMAT_END
309
FORMATTEDTABLEDATAROW_END
  1
TABLEROW_BEGIN
 90
        0
 40
5.291666666666666
309
TABLEROW_END
301
ROW
  1
LINKEDTABLEDATAROW_BEGIN
 90
        4
300
CELL
  1
LINKEDTABLEDATACELL_BEGIN
 90
        0
300

 91
        0
301
CUSTOMDATA
  1
DATAMAP_BEGIN
 90
        0
309
DATAMAP_END
 92
        0
 95
        1
302
CONTENT
  1
CELLCONTENT_BEGIN
 90
        1
300
VALUE
 90
        4
  1
{\fArial Cyr|b0|i0|c0;\H0.6667x;Температура окр.среды, оС
 91
        0
309
CELLCONTENT_END
  1
FORMATTEDCELLCONTENT_BEGIN
170
     1
300
CONTENTFORMAT
  1
CONTENTFORMAT_BEGIN
 90
        3
 91
        0
 92
        4
 93
        0
300

 40
0.0
140
1.0
 94
        1
 62
     0
340
0
144
0.18
309
CONTENTFORMAT_END
309
FORMATTEDCELLCONTENT_END
309
LINKEDTABLEDATACELL_END
  1
FORMATTEDTABLEDATACELL_BEGIN
300
CELLTABLEFORMAT
  1
TABLEFORMAT_BEGIN
 90
        1
170
     1
 91
      532
 92
        0
 62
   257
 93
        1
300
CONTENTFORMAT
  1
CONTENTFORMAT_BEGIN
 90
        0
 91
        0
 92
      512
 93
        0
300

 40
0.0
140
1.0
 94
        7
 62
     0
340
0
144
0.18
309
CONTENTFORMAT_END
171
     0
 94
        0
309
TABLEFORMAT_END
309
FORMATTEDTABLEDATACELL_END
  1
TABLECELL_BEGIN
 90
        0
 91
        0
309
TABLECELL_END
300
CELL
  1
LINKEDTABLEDATACELL_BEGIN
 90
        0
300

 91
        0
301
CUSTOMDATA
  1
DATAMAP_BEGIN
 90
        0
309
DATAMAP_END
 92
        0
 95
        1
302
CONTENT
  1
CELLCONTENT_BEGIN
 90
        1
300
VALUE
 90
        4
  1
{\fArial Cyr|b0|i0|c0;\H0.6667x;15
 91
        0
309
CELLCONTENT_END
  1
FORMATTEDCELLCONTENT_BEGIN
170
     1
300
CONTENTFORMAT
  1
CONTENTFORMAT_BEGIN
 90
        3
 91
        0
 92
        4
 93
        0
300

 40
0.0
140
1.0
 94
        1
 62
     0
340
0
144
0.18
309
CONTENTFORMAT_END
309
FORMATTEDCELLCONTENT_END
309
LINKEDTABLEDATACELL_END
  1
FORMATTEDTABLEDATACELL_BEGIN
300
CELLTABLEFORMAT
  1
TABLEFORMAT_BEGIN
 90
        1
170
     1
 91
      532
 92
        0
 62
   257
 93
        1
300
CONTENTFORMAT
  1
CONTENTFORMAT_BEGIN
 90
        0
 91
        0
 92
      512
 93
        0
300

 40
0.0
140
1.0
 94
        8
 62
     0
340
0
144
0.18
309
CONTENTFORMAT_END
171
     0
 94
        0
309
TABLEFORMAT_END
309
FORMATTEDTABLEDATACELL_END
  1
TABLECELL_BEGIN
 90
        0
 91
        0
309
TABLECELL_END
300
CELL
  1
LINKEDTABLEDATACELL_BEGIN
 90
        0
300

 91
        0
301
CUSTOMDATA
  1
DATAMAP_BEGIN
 90
        0
309
DATAMAP_END
 92
        0
 95
        1
302
CONTENT
  1
CELLCONTENT_BEGIN
 90
        1
300
VALUE
 90
        4
  1
{\fArial Cyr|b0|i0|c0;\H0.6667x;0
 91
        0
309
CELLCONTENT_END
  1
FORMATTEDCELLCONTENT_BEGIN
170
     1
300
CONTENTFORMAT
  1
CONTENTFORMAT_BEGIN
 90
        3
 91
        0
 92
        4
 93
        0
300

 40
0.0
140
1.0
 94
        1
 62
     0
340
0
144
0.18
309
CONTENTFORMAT_END
309
FORMATTEDCELLCONTENT_END
309
LINKEDTABLEDATACELL_END
  1
FORMATTEDTABLEDATACELL_BEGIN
300
CELLTABLEFORMAT
  1
TABLEFORMAT_BEGIN
 90
        1
170
     1
 91
      532
 92
        0
 62
   257
 93
        1
300
CONTENTFORMAT
  1
CONTENTFORMAT_BEGIN
 90
        0
 91
        0
 92
      512
 93
        0
300

 40
0.0
140
1.0
 94
        8
 62
     0
340
0
144
0.18
309
CONTENTFORMAT_END
171
     0
 94
        0
309
TABLEFORMAT_END
309
FORMATTEDTABLEDATACELL_END
  1
TABLECELL_BEGIN
 90
        0
 91
        0
309
TABLECELL_END
300
CELL
  1
LINKEDTABLEDATACELL_BEGIN
 90
        0
300

 91
        0
301
CUSTOMDATA
  1
DATAMAP_BEGIN
 90
        0
309
DATAMAP_END
 92
        0
 95
        1
302
CONTENT
  1
CELLCONTENT_BEGIN
 90
        1
300
VALUE
 90
        4
  1
{\fArial Cyr|b0|i0|c0;\H0.6667x;0
 91
        0
309
CELLCONTENT_END
  1
FORMATTEDCELLCONTENT_BEGIN
170
     1
300
CONTENTFORMAT
  1
CONTENTFORMAT_BEGIN
 90
        3
 91
        0
 92
        4
 93
        0
300

 40
0.0
140
1.0
 94
        1
 62
     0
340
0
144
0.18
309
CONTENTFORMAT_END
309
FORMATTEDCELLCONTENT_END
309
LINKEDTABLEDATACELL_END
  1
FORMATTEDTABLEDATACELL_BEGIN
300
CELLTABLEFORMAT
  1
TABLEFORMAT_BEGIN
 90
        1
170
     1
 91
      532
 92
        0
 62
   257
 93
        1
300
CONTENTFORMAT
  1
CONTENTFORMAT_BEGIN
 90
        0
 91
        0
 92
      512
 93
        0
300

 40
0.0
140
1.0
 94
        8
 62
     0
340
0
144
0.18
309
CONTENTFORMAT_END
171
     0
 94
        0
309
TABLEFORMAT_END
309
FORMATTEDTABLEDATACELL_END
  1
TABLECELL_BEGIN
 90
        0
 91
        0
309
TABLECELL_END
 91
        0
301
CUSTOMDATA
  1
DATAMAP_BEGIN
 90
        0
309
DATAMAP_END
309
LINKEDTABLEDATAROW_END
  1
FORMATTEDTABLEDATAROW_BEGIN
300
ROWTABLEFORMAT
  1
TABLEFORMAT_BEGIN
 90
        2
170
     0
309
TABLEFORMAT_END
309
FORMATTEDTABLEDATAROW_END
  1
TABLEROW_BEGIN
 90
        0
 40
5.291666666666666
309
TABLEROW_END
301
ROW
  1
LINKEDTABLEDATAROW_BEGIN
 90
        4
300
CELL
  1
LINKEDTABLEDATACELL_BEGIN
 90
        0
300

 91
        0
301
CUSTOMDATA
  1
DATAMAP_BEGIN
 90
        0
309
DATAMAP_END
 92
        0
 95
        1
302
CONTENT
  1
CELLCONTENT_BEGIN
 90
        1
300
VALUE
 90
        4
  1
{\fArial Cyr|b0|i0|c0;\H0.6667x;Время разряда, час
 91
        0
309
CELLCONTENT_END
  1
FORMATTEDCELLCONTENT_BEGIN
170
     1
300
CONTENTFORMAT
  1
CONTENTFORMAT_BEGIN
 90
        3
 91
        0
 92
        4
 93
        0
300

 40
0.0
140
1.0
 94
        1
 62
     0
340
0
144
0.18
309
CONTENTFORMAT_END
309
FORMATTEDCELLCONTENT_END
309
LINKEDTABLEDATACELL_END
  1
FORMATTEDTABLEDATACELL_BEGIN
300
CELLTABLEFORMAT
  1
TABLEFORMAT_BEGIN
 90
        1
170
     1
 91
      532
 92
        0
 62
   257
 93
        1
300
CONTENTFORMAT
  1
CONTENTFORMAT_BEGIN
 90
        0
 91
        0
 92
      512
 93
        0
300

 40
0.0
140
1.0
 94
        7
 62
     0
340
0
144
0.18
309
CONTENTFORMAT_END
171
     0
 94
        0
309
TABLEFORMAT_END
309
FORMATTEDTABLEDATACELL_END
  1
TABLECELL_BEGIN
 90
        0
 91
        0
309
TABLECELL_END
300
CELL
  1
LINKEDTABLEDATACELL_BEGIN
 90
        0
300

 91
        0
301
CUSTOMDATA
  1
DATAMAP_BEGIN
 90
        0
309
DATAMAP_END
 92
        0
 95
        1
302
CONTENT
  1
CELLCONTENT_BEGIN
 90
        1
300
VALUE
 90
        4
  1
{\fArial Cyr|b0|i0|c0;\H0.6667x;12
 91
        0
309
CELLCONTENT_END
  1
FORMATTEDCELLCONTENT_BEGIN
170
     1
300
CONTENTFORMAT
  1
CONTENTFORMAT_BEGIN
 90
        3
 91
        0
 92
        4
 93
        0
300

 40
0.0
140
1.0
 94
        1
 62
     0
340
0
144
0.18
309
CONTENTFORMAT_END
309
FORMATTEDCELLCONTENT_END
309
LINKEDTABLEDATACELL_END
  1
FORMATTEDTABLEDATACELL_BEGIN
300
CELLTABLEFORMAT
  1
TABLEFORMAT_BEGIN
 90
        1
170
     1
 91
      532
 92
        0
 62
   257
 93
        1
300
CONTENTFORMAT
  1
CONTENTFORMAT_BEGIN
 90
        0
 91
        0
 92
      512
 93
        0
300

 40
0.0
140
1.0
 94
        8
 62
     0
340
0
144
0.18
309
CONTENTFORMAT_END
171
     0
 94
        0
309
TABLEFORMAT_END
309
FORMATTEDTABLEDATACELL_END
  1
TABLECELL_BEGIN
 90
        0
 91
        0
309
TABLECELL_END
300
CELL
  1
LINKEDTABLEDATACELL_BEGIN
 90
        0
300

 91
        0
301
CUSTOMDATA
  1
DATAMAP_BEGIN
 90
        0
309
DATAMAP_END
 92
        0
 95
        1
302
CONTENT
  1
CELLCONTENT_BEGIN
 90
        1
300
VALUE
 90
        4
  1
{\fArial Cyr|b0|i0|c0;\H0.6667x;16
 91
        0
309
CELLCONTENT_END
  1
FORMATTEDCELLCONTENT_BEGIN
170
     1
300
CONTENTFORMAT
  1
CONTENTFORMAT_BEGIN
 90
        3
 91
        0
 92
        4
 93
        0
300

 40
0.0
140
1.0
 94
        1
 62
     0
340
0
144
0.18
309
CONTENTFORMAT_END
309
FORMATTEDCELLCONTENT_END
309
LINKEDTABLEDATACELL_END
  1
FORMATTEDTABLEDATACELL_BEGIN
300
CELLTABLEFORMAT
  1
TABLEFORMAT_BEGIN
 90
        1
170
     1
 91
      532
 92
        0
 62
   257
 93
        1
300
CONTENTFORMAT
  1
CONTENTFORMAT_BEGIN
 90
        0
 91
        0
 92
      512
 93
        0
300

 40
0.0
140
1.0
 94
        8
 62
     0
340
0
144
0.18
309
CONTENTFORMAT_END
171
     0
 94
        0
309
TABLEFORMAT_END
309
FORMATTEDTABLEDATACELL_END
  1
TABLECELL_BEGIN
 90
        0
 91
        0
309
TABLECELL_END
300
CELL
  1
LINKEDTABLEDATACELL_BEGIN
 90
        0
300

 91
        0
301
CUSTOMDATA
  1
DATAMAP_BEGIN
 90
        0
309
DATAMAP_END
 92
        0
 95
        1
302
CONTENT
  1
CELLCONTENT_BEGIN
 90
        1
300
VALUE
 90
        4
  1
{\fArial Cyr|b0|i0|c0;\H0.6667x;16
 91
        0
309
CELLCONTENT_END
  1
FORMATTEDCELLCONTENT_BEGIN
170
     1
300
CONTENTFORMAT
  1
CONTENTFORMAT_BEGIN
 90
        3
 91
        0
 92
        4
 93
        0
300

 40
0.0
140
1.0
 94
        1
 62
     0
340
0
144
0.18
309
CONTENTFORMAT_END
309
FORMATTEDCELLCONTENT_END
309
LINKEDTABLEDATACELL_END
  1
FORMATTEDTABLEDATACELL_BEGIN
300
CELLTABLEFORMAT
  1
TABLEFORMAT_BEGIN
 90
        1
170
     1
 91
      532
 92
        0
 62
   257
 93
        1
300
CONTENTFORMAT
  1
CONTENTFORMAT_BEGIN
 90
        0
 91
        0
 92
      512
 93
        0
300

 40
0.0
140
1.0
 94
        8
 62
     0
340
0
144
0.18
309
CONTENTFORMAT_END
171
     0
 94
        0
309
TABLEFORMAT_END
309
FORMATTEDTABLEDATACELL_END
  1
TABLECELL_BEGIN
 90
        0
 91
        0
309
TABLECELL_END
 91
        0
301
CUSTOMDATA
  1
DATAMAP_BEGIN
 90
        0
309
DATAMAP_END
309
LINKEDTABLEDATAROW_END
  1
FORMATTEDTABLEDATAROW_BEGIN
300
ROWTABLEFORMAT
  1
TABLEFORMAT_BEGIN
 90
        2
170
     0
309
TABLEFORMAT_END
309
FORMATTEDTABLEDATAROW_END
  1
TABLEROW_BEGIN
 90
        0
 40
5.291666666666666
309
TABLEROW_END
301
ROW
  1
LINKEDTABLEDATAROW_BEGIN
 90
        4
300
CELL
  1
LINKEDTABLEDATACELL_BEGIN
 90
        0
300

 91
        0
301
CUSTOMDATA
  1
DATAMAP_BEGIN
 90
        0
309
DATAMAP_END
 92
        0
 95
        1
302
CONTENT
  1
CELLCONTENT_BEGIN
 90
        1
300
VALUE
 90
        4
  1
{\fArial Cyr|b0|i0|c0;\H0.6667x;Объем в первом приближении, м3
 91
        0
309
CELLCONTENT_END
  1
FORMATTEDCELLCONTENT_BEGIN
170
     1
300
CONTENTFORMAT
  1
CONTENTFORMAT_BEGIN
 90
        3
 91
        0
 92
        4
 93
        0
300

 40
0.0
140
1.0
 94
        1
 62
     0
340
0
144
0.18
309
CONTENTFORMAT_END
309
FORMATTEDCELLCONTENT_END
309
LINKEDTABLEDATACELL_END
  1
FORMATTEDTABLEDATACELL_BEGIN
300
CELLTABLEFORMAT
  1
TABLEFORMAT_BEGIN
 90
        1
170
     1
 91
      532
 92
        0
 62
   257
 93
        1
300
CONTENTFORMAT
  1
CONTENTFORMAT_BEGIN
 90
        0
 91
        0
 92
      512
 93
        0
300

 40
0.0
140
1.0
 94
        7
 62
     0
340
0
144
0.18
309
CONTENTFORMAT_END
171
     0
 94
        0
309
TABLEFORMAT_END
309
FORMATTEDTABLEDATACELL_END
  1
TABLECELL_BEGIN
 90
        0
 91
        0
309
TABLECELL_END
300
CELL
  1
LINKEDTABLEDATACELL_BEGIN
 90
        0
300

 91
        0
301
CUSTOMDATA
  1
DATAMAP_BEGIN
 90
        0
309
DATAMAP_END
 92
        0
 95
        1
302
CONTENT
  1
CELLCONTENT_BEGIN
 90
        1
300
VALUE
 90
        4
  1
{\fArial Cyr|b0|i0|c0;\H0.6667x;4,11428571
 91
        0
309
CELLCONTENT_END
  1
FORMATTEDCELLCONTENT_BEGIN
170
     1
300
CONTENTFORMAT
  1
CONTENTFORMAT_BEGIN
 90
        3
 91
        0
 92
        4
 93
        0
300

 40
0.0
140
1.0
 94
        1
 62
     0
340
0
144
0.18
309
CONTENTFORMAT_END
309
FORMATTEDCELLCONTENT_END
309
LINKEDTABLEDATACELL_END
  1
FORMATTEDTABLEDATACELL_BEGIN
300
CELLTABLEFORMAT
  1
TABLEFORMAT_BEGIN
 90
        1
170
     1
 91
      532
 92
        0
 62
   257
 93
        1
300
CONTENTFORMAT
  1
CONTENTFORMAT_BEGIN
 90
        0
 91
        0
 92
      512
 93
        0
300

 40
0.0
140
1.0
 94
        8
 62
     0
340
0
144
0.18
309
CONTENTFORMAT_END
171
     0
 94
        0
309
TABLEFORMAT_END
309
FORMATTEDTABLEDATACELL_END
  1
TABLECELL_BEGIN
 90
        0
 91
        0
309
TABLECELL_END
300
CELL
  1
LINKEDTABLEDATACELL_BEGIN
 90
        0
300

 91
        0
301
CUSTOMDATA
  1
DATAMAP_BEGIN
 90
        0
309
DATAMAP_END
 92
        0
 95
        1
302
CONTENT
  1
CELLCONTENT_BEGIN
 90
        1
300
VALUE
 90
        4
  1
{\fArial Cyr|b0|i0|c0;\H0.6667x;11,302428
 91
        0
309
CELLCONTENT_END
  1
FORMATTEDCELLCONTENT_BEGIN
170
     1
300
CONTENTFORMAT
  1
CONTENTFORMAT_BEGIN
 90
        3
 91
        0
 92
        4
 93
        0
300

 40
0.0
140
1.0
 94
        1
 62
     0
340
0
144
0.18
309
CONTENTFORMAT_END
309
FORMATTEDCELLCONTENT_END
309
LINKEDTABLEDATACELL_END
  1
FORMATTEDTABLEDATACELL_BEGIN
300
CELLTABLEFORMAT
  1
TABLEFORMAT_BEGIN
 90
        1
170
     1
 91
      532
 92
        0
 62
   257
 93
        1
300
CONTENTFORMAT
  1
CONTENTFORMAT_BEGIN
 90
        0
 91
        0
 92
      512
 93
        0
300

 40
0.0
140
1.0
 94
        8
 62
     0
340
0
144
0.18
309
CONTENTFORMAT_END
171
     0
 94
        0
309
TABLEFORMAT_END
309
FORMATTEDTABLEDATACELL_END
  1
TABLECELL_BEGIN
 90
        0
 91
        0
309
TABLECELL_END
300
CELL
  1
LINKEDTABLEDATACELL_BEGIN
 90
        0
300

 91
        0
301
CUSTOMDATA
  1
DATAMAP_BEGIN
 90
        0
309
DATAMAP_END
 92
        0
 95
        1
302
CONTENT
  1
CELLCONTENT_BEGIN
 90
        1
300
VALUE
 90
        4
  1
{\fArial Cyr|b0|i0|c0;\H0.6667x;18,414322
 91
        0
309
CELLCONTENT_END
  1
FORMATTEDCELLCONTENT_BEGIN
170
     1
300
CONTENTFORMAT
  1
CONTENTFORMAT_BEGIN
 90
        3
 91
        0
 92
        4
 93
        0
300

 40
0.0
140
1.0
 94
        1
 62
     0
340
0
144
0.18
309
CONTENTFORMAT_END
309
FORMATTEDCELLCONTENT_END
309
LINKEDTABLEDATACELL_END
  1
FORMATTEDTABLEDATACELL_BEGIN
300
CELLTABLEFORMAT
  1
TABLEFORMAT_BEGIN
 90
        1
170
     1
 91
      532
 92
        0
 62
   257
 93
        1
300
CONTENTFORMAT
  1
CONTENTFORMAT_BEGIN
 90
        0
 91
        0
 92
      512
 93
        0
300

 40
0.0
140
1.0
 94
        8
 62
     0
340
0
144
0.18
309
CONTENTFORMAT_END
171
     0
 94
        0
309
TABLEFORMAT_END
309
FORMATTEDTABLEDATACELL_END
  1
TABLECELL_BEGIN
 90
        0
 91
        0
309
TABLECELL_END
 91
        0
301
CUSTOMDATA
  1
DATAMAP_BEGIN
 90
        0
309
DATAMAP_END
309
LINKEDTABLEDATAROW_END
  1
FORMATTEDTABLEDATAROW_BEGIN
300
ROWTABLEFORMAT
  1
TABLEFORMAT_BEGIN
 90
        2
170
     0
309
TABLEFORMAT_END
309
FORMATTEDTABLEDATAROW_END
  1
TABLEROW_BEGIN
 90
        0
 40
1.0
309
TABLEROW_END
301
ROW
  1
LINKEDTABLEDATAROW_BEGIN
 90
        4
300
CELL
  1
LINKEDTABLEDATACELL_BEGIN
 90
        0
300

 91
        0
301
CUSTOMDATA
  1
DATAMAP_BEGIN
 90
        0
309
DATAMAP_END
 92
        0
 95
        1
302
CONTENT
  1
CELLCONTENT_BEGIN
 90
        1
300
VALUE
 90
        4
  1
{\fArial Cyr|b0|i0|c0;\H0.6667x;Диаметр/высота, м
 91
        0
309
CELLCONTENT_END
  1
FORMATTEDCELLCONTENT_BEGIN
170
     1
300
CONTENTFORMAT
  1
CONTENTFORMAT_BEGIN
 90
        3
 91
        0
 92
        4
 93
        0
300

 40
0.0
140
1.0
 94
        1
 62
     0
340
0
144
0.18
309
CONTENTFORMAT_END
309
FORMATTEDCELLCONTENT_END
309
LINKEDTABLEDATACELL_END
  1
FORMATTEDTABLEDATACELL_BEGIN
300
CELLTABLEFORMAT
  1
TABLEFORMAT_BEGIN
 90
        1
170
     1
 91
      532
 92
        0
 62
   257
 93
        1
300
CONTENTFORMAT
  1
CONTENTFORMAT_BEGIN
 90
        0
 91
        0
 92
      512
 93
        0
300

 40
0.0
140
1.0
 94
        7
 62
     0
340
0
144
0.18
309
CONTENTFORMAT_END
171
     0
 94
        0
309
TABLEFORMAT_END
309
FORMATTEDTABLEDATACELL_END
  1
TABLECELL_BEGIN
 90
        0
 91
        0
309
TABLECELL_END
300
CELL
  1
LINKEDTABLEDATACELL_BEGIN
 90
        0
300

 91
        0
301
CUSTOMDATA
  1
DATAMAP_BEGIN
 90
        0
309
DATAMAP_END
 92
        0
 95
        1
302
CONTENT
  1
CELLCONTENT_BEGIN
 90
        1
300
VALUE
 90
        4
  1
{\fArial Cyr|b0|i0|c0;\H0.6667x;1,73702419
 91
        0
309
CELLCONTENT_END
  1
FORMATTEDCELLCONTENT_BEGIN
170
     1
300
CONTENTFORMAT
  1
CONTENTFORMAT_BEGIN
 90
        3
 91
        0
 92
        4
 93
        0
300

 40
0.0
140
1.0
 94
        1
 62
     0
340
0
144
0.18
309
CONTENTFORMAT_END
309
FORMATTEDCELLCONTENT_END
309
LINKEDTABLEDATACELL_END
  1
FORMATTEDTABLEDATACELL_BEGIN
300
CELLTABLEFORMAT
  1
TABLEFORMAT_BEGIN
 90
        1
170
     1
 91
      532
 92
        0
 62
   257
 93
        1
300
CONTENTFORMAT
  1
CONTENTFORMAT_BEGIN
 90
        0
 91
        0
 92
      512
 93
        0
300

 40
0.0
140
1.0
 94
        8
 62
     0
340
0
144
0.18
309
CONTENTFORMAT_END
171
     0
 94
        0
309
TABLEFORMAT_END
309
FORMATTEDTABLEDATACELL_END
  1
TABLECELL_BEGIN
 90
        0
 91
        0
309
TABLECELL_END
300
CELL
  1
LINKEDTABLEDATACELL_BEGIN
 90
        0
300

 91
        0
301
CUSTOMDATA
  1
DATAMAP_BEGIN
 90
        0
309
DATAMAP_END
 92
        0
 95
        1
302
CONTENT
  1
CELLCONTENT_BEGIN
 90
        1
300
VALUE
 90
        4
  1
{\fArial Cyr|b0|i0|c0;\H0.6667x;2,4327464
 91
        0
309
CELLCONTENT_END
  1
FORMATTEDCELLCONTENT_BEGIN
170
     1
300
CONTENTFORMAT
  1
CONTENTFORMAT_BEGIN
 90
        3
 91
        0
 92
        4
 93
        0
300

 40
0.0
140
1.0
 94
        1
 62
     0
340
0
144
0.18
309
CONTENTFORMAT_END
309
FORMATTEDCELLCONTENT_END
309
LINKEDTABLEDATACELL_END
  1
FORMATTEDTABLEDATACELL_BEGIN
300
CELLTABLEFORMAT
  1
TABLEFORMAT_BEGIN
 90
        1
170
     1
 91
      532
 92
        0
 62
   257
 93
        1
300
CONTENTFORMAT
  1
CONTENTFORMAT_BEGIN
 90
        0
 91
        0
 92
      512
 93
        0
300

 40
0.0
140
1.0
 94
        8
 62
     0
340
0
144
0.18
309
CONTENTFORMAT_END
171
     0
 94
        0
309
TABLEFORMAT_END
309
FORMATTEDTABLEDATACELL_END
  1
TABLECELL_BEGIN
 90
        0
 91
        0
309
TABLECELL_END
300
CELL
  1
LINKEDTABLEDATACELL_BEGIN
 90
        0
300

 91
        0
301
CUSTOMDATA
  1
DATAMAP_BEGIN
 90
        0
309
DATAMAP_END
 92
        0
 95
        1
302
CONTENT
  1
CELLCONTENT_BEGIN
 90
        1
300
VALUE
 90
        4
  1
{\fArial Cyr|b0|i0|c0;\H0.6667x;2,8625789
 91
        0
309
CELLCONTENT_END
  1
FORMATTEDCELLCONTENT_BEGIN
170
     1
300
CONTENTFORMAT
  1
CONTENTFORMAT_BEGIN
 90
        3
 91
        0
 92
        4
 93
        0
300

 40
0.0
140
1.0
 94
        1
 62
     0
340
0
144
0.18
309
CONTENTFORMAT_END
309
FORMATTEDCELLCONTENT_END
309
LINKEDTABLEDATACELL_END
  1
FORMATTEDTABLEDATACELL_BEGIN
300
CELLTABLEFORMAT
  1
TABLEFORMAT_BEGIN
 90
        1
170
     1
 91
      532
 92
        0
 62
   257
 93
        1
300
CONTENTFORMAT
  1
CONTENTFORMAT_BEGIN
 90
        0
 91
        0
 92
      512
 93
        0
300

 40
0.0
140
1.0
 94
        8
 62
     0
340
0
144
0.18
309
CONTENTFORMAT_END
171
     0
 94
        0
309
TABLEFORMAT_END
309
FORMATTEDTABLEDATACELL_END
  1
TABLECELL_BEGIN
 90
        0
 91
        0
309
TABLECELL_END
 91
        0
301
CUSTOMDATA
  1
DATAMAP_BEGIN
 90
        0
309
DATAMAP_END
309
LINKEDTABLEDATAROW_END
  1
FORMATTEDTABLEDATAROW_BEGIN
300
ROWTABLEFORMAT
  1
TABLEFORMAT_BEGIN
 90
        2
170
     0
309
TABLEFORMAT_END
309
FORMATTEDTABLEDATAROW_END
  1
TABLEROW_BEGIN
 90
        0
 40
1.0
309
TABLEROW_END
301
ROW
  1
LINKEDTABLEDATAROW_BEGIN
 90
        4
300
CELL
  1
LINKEDTABLEDATACELL_BEGIN
 90
        0
300

 91
        0
301
CUSTOMDATA
  1
DATAMAP_BEGIN
 90
        0
309
DATAMAP_END
 92
        0
 95
        1
302
CONTENT
  1
CELLCONTENT_BEGIN
 90
        1
300
VALUE
 90
        4
  1
{\fArial Cyr|b0|i0|c0;\H0.6667x;Площадь поверхности, м2
 91
        0
309
CELLCONTENT_END
  1
FORMATTEDCELLCONTENT_BEGIN
170
     1
300
CONTENTFORMAT
  1
CONTENTFORMAT_BEGIN
 90
        3
 91
        0
 92
        4
 93
        0
300

 40
0.0
140
1.0
 94
        1
 62
     0
340
0
144
0.18
309
CONTENTFORMAT_END
309
FORMATTEDCELLCONTENT_END
309
LINKEDTABLEDATACELL_END
  1
FORMATTEDTABLEDATACELL_BEGIN
300
CELLTABLEFORMAT
  1
TABLEFORMAT_BEGIN
 90
        1
170
     1
 91
      532
 92
        0
 62
   257
 93
        1
300
CONTENTFORMAT
  1
CONTENTFORMAT_BEGIN
 90
        0
 91
        0
 92
      512
 93
        0
300

 40
0.0
140
1.0
 94
        7
 62
     0
340
0
144
0.18
309
CONTENTFORMAT_END
171
     0
 94
        0
309
TABLEFORMAT_END
309
FORMATTEDTABLEDATACELL_END
  1
TABLECELL_BEGIN
 90
        0
 91
        0
309
TABLECELL_END
300
CELL
  1
LINKEDTABLEDATACELL_BEGIN
 90
        0
300

 91
        0
301
CUSTOMDATA
  1
DATAMAP_BEGIN
 90
        0
309
DATAMAP_END
 92
        0
 95
        1
302
CONTENT
  1
CELLCONTENT_BEGIN
 90
        1
300
VALUE
 90
        4
  1
{\fArial Cyr|b0|i0|c0;\H0.6667x;11,8487249
 91
        0
309
CELLCONTENT_END
  1
FORMATTEDCELLCONTENT_BEGIN
170
     1
300
CONTENTFORMAT
  1
CONTENTFORMAT_BEGIN
 90
        3
 91
        0
 92
        4
 93
        0
300

 40
0.0
140
1.0
 94
        1
 62
     0
340
0
144
0.18
309
CONTENTFORMAT_END
309
FORMATTEDCELLCONTENT_END
309
LINKEDTABLEDATACELL_END
  1
FORMATTEDTABLEDATACELL_BEGIN
300
CELLTABLEFORMAT
  1
TABLEFORMAT_BEGIN
 90
        1
170
     1
 91
      532
 92
        0
 62
   257
 93
        1
300
CONTENTFORMAT
  1
CONTENTFORMAT_BEGIN
 90
        0
 91
        0
 92
      512
 93
        0
300

 40
0.0
140
1.0
 94
        8
 62
     0
340
0
144
0.18
309
CONTENTFORMAT_END
171
     0
 94
        0
309
TABLEFORMAT_END
309
FORMATTEDTABLEDATACELL_END
  1
TABLECELL_BEGIN
 90
        0
 91
        0
309
TABLECELL_END
300
CELL
  1
LINKEDTABLEDATACELL_BEGIN
 90
        0
300

 91
        0
301
CUSTOMDATA
  1
DATAMAP_BEGIN
 90
        0
309
DATAMAP_END
 92
        0
 95
        1
302
CONTENT
  1
CELLCONTENT_BEGIN
 90
        1
300
VALUE
 90
        4
  1
{\fArial Cyr|b0|i0|c0;\H0.6667x;23,240933
 91
        0
309
CELLCONTENT_END
  1
FORMATTEDCELLCONTENT_BEGIN
170
     1
300
CONTENTFORMAT
  1
CONTENTFORMAT_BEGIN
 90
        3
 91
        0
 92
        4
 93
        0
300

 40
0.0
140
1.0
 94
        1
 62
     0
340
0
144
0.18
309
CONTENTFORMAT_END
309
FORMATTEDCELLCONTENT_END
309
LINKEDTABLEDATACELL_END
  1
FORMATTEDTABLEDATACELL_BEGIN
300
CELLTABLEFORMAT
  1
TABLEFORMAT_BEGIN
 90
        1
170
     1
 91
      532
 92
        0
 62
   257
 93
        1
300
CONTENTFORMAT
  1
CONTENTFORMAT_BEGIN
 90
        0
 91
        0
 92
      512
 93
        0
300

 40
0.0
140
1.0
 94
        8
 62
     0
340
0
144
0.18
309
CONTENTFORMAT_END
171
     0
 94
        0
309
TABLEFORMAT_END
309
FORMATTEDTABLEDATACELL_END
  1
TABLECELL_BEGIN
 90
        0
 91
        0
309
TABLECELL_END
300
CELL
  1
LINKEDTABLEDATACELL_BEGIN
 90
        0
300

 91
        0
301
CUSTOMDATA
  1
DATAMAP_BEGIN
 90
        0
309
DATAMAP_END
 92
        0
 95
        1
302
CONTENT
  1
CELLCONTENT_BEGIN
 90
        1
300
VALUE
 90
        4
  1
{\fArial Cyr|b0|i0|c0;\H0.6667x;32,179168
 91
        0
309
CELLCONTENT_END
  1
FORMATTEDCELLCONTENT_BEGIN
170
     1
300
CONTENTFORMAT
  1
CONTENTFORMAT_BEGIN
 90
        3
 91
        0
 92
        4
 93
        0
300

 40
0.0
140
1.0
 94
        1
 62
     0
340
0
144
0.18
309
CONTENTFORMAT_END
309
FORMATTEDCELLCONTENT_END
309
LINKEDTABLEDATACELL_END
  1
FORMATTEDTABLEDATACELL_BEGIN
300
CELLTABLEFORMAT
  1
TABLEFORMAT_BEGIN
 90
        1
170
     1
 91
      532
 92
        0
 62
   257
 93
        1
300
CONTENTFORMAT
  1
CONTENTFORMAT_BEGIN
 90
        0
 91
        0
 92
      512
 93
        0
300

 40
0.0
140
1.0
 94
        8
 62
     0
340
0
144
0.18
309
CONTENTFORMAT_END
171
     0
 94
        0
309
TABLEFORMAT_END
309
FORMATTEDTABLEDATACELL_END
  1
TABLECELL_BEGIN
 90
        0
 91
        0
309
TABLECELL_END
 91
        0
301
CUSTOMDATA
  1
DATAMAP_BEGIN
 90
        0
309
DATAMAP_END
309
LINKEDTABLEDATAROW_END
  1
FORMATTEDTABLEDATAROW_BEGIN
300
ROWTABLEFORMAT
  1
TABLEFORMAT_BEGIN
 90
        2
170
     0
309
TABLEFORMAT_END
309
FORMATTEDTABLEDATAROW_END
  1
TABLEROW_BEGIN
 90
        0
 40
1.0
309
TABLEROW_END
301
ROW
  1
LINKEDTABLEDATAROW_BEGIN
 90
        4
300
CELL
  1
LINKEDTABLEDATACELL_BEGIN
 90
        0
300

 91
        0
301
CUSTOMDATA
  1
DATAMAP_BEGIN
 90
        0
309
DATAMAP_END
 92
        0
 95
        1
302
CONTENT
  1
CELLCONTENT_BEGIN
 90
        1
300
VALUE
 90
        4
  1
{\fArial Cyr|b0|i0|c0;\H0.6667x;Коэф. Теплопередачи, вт/м2,К
 91
        0
309
CELLCONTENT_END
  1
FORMATTEDCELLCONTENT_BEGIN
170
     1
300
CONTENTFORMAT
  1
CONTENTFORMAT_BEGIN
 90
        3
 91
        0
 92
        4
 93
        0
300

 40
0.0
140
1.0
 94
        1
 62
     0
340
0
144
0.18
309
CONTENTFORMAT_END
309
FORMATTEDCELLCONTENT_END
309
LINKEDTABLEDATACELL_END
  1
FORMATTEDTABLEDATACELL_BEGIN
300
CELLTABLEFORMAT
  1
TABLEFORMAT_BEGIN
 90
        1
170
     1
 91
      532
 92
        0
 62
   257
 93
        1
300
CONTENTFORMAT
  1
CONTENTFORMAT_BEGIN
 90
        0
 91
        0
 92
      512
 93
        0
300

 40
0.0
140
1.0
 94
        7
 62
     0
340
0
144
0.18
309
CONTENTFORMAT_END
171
     0
 94
        0
309
TABLEFORMAT_END
309
FORMATTEDTABLEDATACELL_END
  1
TABLECELL_BEGIN
 90
        0
 91
        0
309
TABLECELL_END
300
CELL
  1
LINKEDTABLEDATACELL_BEGIN
 90
        0
300

 91
        0
301
CUSTOMDATA
  1
DATAMAP_BEGIN
 90
        0
309
DATAMAP_END
 92
        0
 95
        1
302
CONTENT
  1
CELLCONTENT_BEGIN
 90
        1
300
VALUE
 90
        4
  1
{\fArial Cyr|b0|i0|c0;\H0.6667x;0,83333333
 91
        0
309
CELLCONTENT_END
  1
FORMATTEDCELLCONTENT_BEGIN
170
     1
300
CONTENTFORMAT
  1
CONTENTFORMAT_BEGIN
 90
        3
 91
        0
 92
        4
 93
        0
300

 40
0.0
140
1.0
 94
        1
 62
     0
340
0
144
0.18
309
CONTENTFORMAT_END
309
FORMATTEDCELLCONTENT_END
309
LINKEDTABLEDATACELL_END
  1
FORMATTEDTABLEDATACELL_BEGIN
300
CELLTABLEFORMAT
  1
TABLEFORMAT_BEGIN
 90
        1
170
     1
 91
      532
 92
        0
 62
   257
 93
        1
300
CONTENTFORMAT
  1
CONTENTFORMAT_BEGIN
 90
        0
 91
        0
 92
      512
 93
        0
300

 40
0.0
140
1.0
 94
        8
 62
     0
340
0
144
0.18
309
CONTENTFORMAT_END
171
     0
 94
        0
309
TABLEFORMAT_END
309
FORMATTEDTABLEDATACELL_END
  1
TABLECELL_BEGIN
 90
        0
 91
        0
309
TABLECELL_END
300
CELL
  1
LINKEDTABLEDATACELL_BEGIN
 90
        0
300

 91
        0
301
CUSTOMDATA
  1
DATAMAP_BEGIN
 90
        0
309
DATAMAP_END
 92
        0
 95
        1
302
CONTENT
  1
CELLCONTENT_BEGIN
 90
        1
300
VALUE
 90
        4
  1
{\fArial Cyr|b0|i0|c0;\H0.6667x;0,8333333
 91
        0
309
CELLCONTENT_END
  1
FORMATTEDCELLCONTENT_BEGIN
170
     1
300
CONTENTFORMAT
  1
CONTENTFORMAT_BEGIN
 90
        3
 91
        0
 92
        4
 93
        0
300

 40
0.0
140
1.0
 94
        1
 62
     0
340
0
144
0.18
309
CONTENTFORMAT_END
309
FORMATTEDCELLCONTENT_END
309
LINKEDTABLEDATACELL_END
  1
FORMATTEDTABLEDATACELL_BEGIN
300
CELLTABLEFORMAT
  1
TABLEFORMAT_BEGIN
 90
        1
170
     1
 91
      532
 92
        0
 62
   257
 93
        1
300
CONTENTFORMAT
  1
CONTENTFORMAT_BEGIN
 90
        0
 91
        0
 92
      512
 93
        0
300

 40
0.0
140
1.0
 94
        8
 62
     0
340
0
144
0.18
309
CONTENTFORMAT_END
171
     0
 94
        0
309
TABLEFORMAT_END
309
FORMATTEDTABLEDATACELL_END
  1
TABLECELL_BEGIN
 90
        0
 91
        0
309
TABLECELL_END
300
CELL
  1
LINKEDTABLEDATACELL_BEGIN
 90
        0
300

 91
        0
301
CUSTOMDATA
  1
DATAMAP_BEGIN
 90
        0
309
DATAMAP_END
 92
        0
 95
        1
302
CONTENT
  1
CELLCONTENT_BEGIN
 90
        1
300
VALUE
 90
        4
  1
{\fArial Cyr|b0|i0|c0;\H0.6667x;0,8333333
 91
        0
309
CELLCONTENT_END
  1
FORMATTEDCELLCONTENT_BEGIN
170
     1
300
CONTENTFORMAT
  1
CONTENTFORMAT_BEGIN
 90
        3
 91
        0
 92
        4
 93
        0
300

 40
0.0
140
1.0
 94
        1
 62
     0
340
0
144
0.18
309
CONTENTFORMAT_END
309
FORMATTEDCELLCONTENT_END
309
LINKEDTABLEDATACELL_END
  1
FORMATTEDTABLEDATACELL_BEGIN
300
CELLTABLEFORMAT
  1
TABLEFORMAT_BEGIN
 90
        1
170
     1
 91
      532
 92
        0
 62
   257
 93
        1
300
CONTENTFORMAT
  1
CONTENTFORMAT_BEGIN
 90
        0
 91
        0
 92
      512
 93
        0
300

 40
0.0
140
1.0
 94
        8
 62
     0
340
0
144
0.18
309
CONTENTFORMAT_END
171
     0
 94
        0
309
TABLEFORMAT_END
309
FORMATTEDTABLEDATACELL_END
  1
TABLECELL_BEGIN
 90
        0
 91
        0
309
TABLECELL_END
 91
        0
301
CUSTOMDATA
  1
DATAMAP_BEGIN
 90
        0
309
DATAMAP_END
309
LINKEDTABLEDATAROW_END
  1
FORMATTEDTABLEDATAROW_BEGIN
300
ROWTABLEFORMAT
  1
TABLEFORMAT_BEGIN
 90
        2
170
     0
309
TABLEFORMAT_END
309
FORMATTEDTABLEDATAROW_END
  1
TABLEROW_BEGIN
 90
        0
 40
1.0
309
TABLEROW_END
301
ROW
  1
LINKEDTABLEDATAROW_BEGIN
 90
        4
300
CELL
  1
LINKEDTABLEDATACELL_BEGIN
 90
        0
300

 91
        0
301
CUSTOMDATA
  1
DATAMAP_BEGIN
 90
        0
309
DATAMAP_END
 92
        0
 95
        1
302
CONTENT
  1
CELLCONTENT_BEGIN
 90
        1
300
VALUE
 90
        4
  1
{\fArial Cyr|b0|i0|c0;\H0.6667x;Потери в окр. Среду, квт
 91
        0
309
CELLCONTENT_END
  1
FORMATTEDCELLCONTENT_BEGIN
170
     1
300
CONTENTFORMAT
  1
CONTENTFORMAT_BEGIN
 90
        3
 91
        0
 92
        4
 93
        0
300

 40
0.0
140
1.0
 94
        1
 62
     0
340
0
144
0.18
309
CONTENTFORMAT_END
309
FORMATTEDCELLCONTENT_END
309
LINKEDTABLEDATACELL_END
  1
FORMATTEDTABLEDATACELL_BEGIN
300
CELLTABLEFORMAT
  1
TABLEFORMAT_BEGIN
 90
        1
170
     1
 91
      532
 92
        0
 62
   257
 93
        1
300
CONTENTFORMAT
  1
CONTENTFORMAT_BEGIN
 90
        0
 91
        0
 92
      512
 93
        0
300

 40
0.0
140
1.0
 94
        7
 62
     0
340
0
144
0.18
309
CONTENTFORMAT_END
171
     0
 94
        0
309
TABLEFORMAT_END
309
FORMATTEDTABLEDATACELL_END
  1
TABLECELL_BEGIN
 90
        0
 91
        0
309
TABLECELL_END
300
CELL
  1
LINKEDTABLEDATACELL_BEGIN
 90
        0
300

 91
        0
301
CUSTOMDATA
  1
DATAMAP_BEGIN
 90
        0
309
DATAMAP_END
 92
        0
 95
        1
302
CONTENT
  1
CELLCONTENT_BEGIN
 90
        1
300
VALUE
 90
        4
  1
{\fArial Cyr|b0|i0|c0;\H0.6667x;0,37
 91
        0
309
CELLCONTENT_END
  1
FORMATTEDCELLCONTENT_BEGIN
170
     1
300
CONTENTFORMAT
  1
CONTENTFORMAT_BEGIN
 90
        3
 91
        0
 92
        4
 93
        0
300

 40
0.0
140
1.0
 94
        1
 62
     0
340
0
144
0.18
309
CONTENTFORMAT_END
309
FORMATTEDCELLCONTENT_END
309
LINKEDTABLEDATACELL_END
  1
FORMATTEDTABLEDATACELL_BEGIN
300
CELLTABLEFORMAT
  1
TABLEFORMAT_BEGIN
 90
        1
170
     1
 91
      532
 92
        0
 62
   257
 93
        1
300
CONTENTFORMAT
  1
CONTENTFORMAT_BEGIN
 90
        0
 91
        0
 92
      512
 93
        0
300

 40
0.0
140
1.0
 94
        8
 62
     0
340
0
144
0.18
309
CONTENTFORMAT_END
171
     0
 94
        0
309
TABLEFORMAT_END
309
FORMATTEDTABLEDATACELL_END
  1
TABLECELL_BEGIN
 90
        0
 91
        0
309
TABLECELL_END
300
CELL
  1
LINKEDTABLEDATACELL_BEGIN
 90
        0
300

 91
        0
301
CUSTOMDATA
  1
DATAMAP_BEGIN
 90
        0
309
DATAMAP_END
 92
        0
 95
        1
302
CONTENT
  1
CELLCONTENT_BEGIN
 90
        1
300
VALUE
 90
        4
  1
{\fArial Cyr|b0|i0|c0;\H0.6667x;0,53
 91
        0
309
CELLCONTENT_END
  1
FORMATTEDCELLCONTENT_BEGIN
170
     1
300
CONTENTFORMAT
  1
CONTENTFORMAT_BEGIN
 90
        3
 91
        0
 92
        4
 93
        0
300

 40
0.0
140
1.0
 94
        1
 62
     0
340
0
144
0.18
309
CONTENTFORMAT_END
309
FORMATTEDCELLCONTENT_END
309
LINKEDTABLEDATACELL_END
  1
FORMATTEDTABLEDATACELL_BEGIN
300
CELLTABLEFORMAT
  1
TABLEFORMAT_BEGIN
 90
        1
170
     1
 91
      532
 92
        0
 62
   257
 93
        1
300
CONTENTFORMAT
  1
CONTENTFORMAT_BEGIN
 90
        0
 91
        0
 92
      512
 93
        0
300

 40
0.0
140
1.0
 94
        8
 62
     0
340
0
144
0.18
309
CONTENTFORMAT_END
171
     0
 94
        0
309
TABLEFORMAT_END
309
FORMATTEDTABLEDATACELL_END
  1
TABLECELL_BEGIN
 90
        0
 91
        0
309
TABLECELL_END
300
CELL
  1
LINKEDTABLEDATACELL_BEGIN
 90
        0
300

 91
        0
301
CUSTOMDATA
  1
DATAMAP_BEGIN
 90
        0
309
DATAMAP_END
 92
        0
 95
        1
302
CONTENT
  1
CELLCONTENT_BEGIN
 90
        1
300
VALUE
 90
        4
  1
{\fArial Cyr|b0|i0|c0;\H0.6667x;0,74
 91
        0
309
CELLCONTENT_END
  1
FORMATTEDCELLCONTENT_BEGIN
170
     1
300
CONTENTFORMAT
  1
CONTENTFORMAT_BEGIN
 90
        3
 91
        0
 92
        4
 93
        0
300

 40
0.0
140
1.0
 94
        1
 62
     0
340
0
144
0.18
309
CONTENTFORMAT_END
309
FORMATTEDCELLCONTENT_END
309
LINKEDTABLEDATACELL_END
  1
FORMATTEDTABLEDATACELL_BEGIN
300
CELLTABLEFORMAT
  1
TABLEFORMAT_BEGIN
 90
        1
170
     1
 91
      532
 92
        0
 62
   257
 93
        1
300
CONTENTFORMAT
  1
CONTENTFORMAT_BEGIN
 90
        0
 91
        0
 92
      512
 93
        0
300

 40
0.0
140
1.0
 94
        8
 62
     0
340
0
144
0.18
309
CONTENTFORMAT_END
171
     0
 94
        0
309
TABLEFORMAT_END
309
FORMATTEDTABLEDATACELL_END
  1
TABLECELL_BEGIN
 90
        0
 91
        0
309
TABLECELL_END
 91
        0
301
CUSTOMDATA
  1
DATAMAP_BEGIN
 90
        0
309
DATAMAP_END
309
LINKEDTABLEDATAROW_END
  1
FORMATTEDTABLEDATAROW_BEGIN
300
ROWTABLEFORMAT
  1
TABLEFORMAT_BEGIN
 90
        2
170
     0
309
TABLEFORMAT_END
309
FORMATTEDTABLEDATAROW_END
  1
TABLEROW_BEGIN
 90
        0
 40
1.0
309
TABLEROW_END
301
ROW
  1
LINKEDTABLEDATAROW_BEGIN
 90
        4
300
CELL
  1
LINKEDTABLEDATACELL_BEGIN
 90
        0
300

 91
        0
301
CUSTOMDATA
  1
DATAMAP_BEGIN
 90
        0
309
DATAMAP_END
 92
        0
 95
        1
302
CONTENT
  1
CELLCONTENT_BEGIN
 90
        1
300
VALUE
 90
        4
  1
{\fArial Cyr|b0|i0|c0;\H0.6667x;Объем аккумулятора, м3
 91
        0
309
CELLCONTENT_END
  1
FORMATTEDCELLCONTENT_BEGIN
170
     1
300
CONTENTFORMAT
  1
CONTENTFORMAT_BEGIN
 90
        3
 91
        0
 92
        4
 93
        0
300

 40
0.0
140
1.0
 94
        1
 62
     0
340
0
144
0.18
309
CONTENTFORMAT_END
309
FORMATTEDCELLCONTENT_END
309
LINKEDTABLEDATACELL_END
  1
FORMATTEDTABLEDATACELL_BEGIN
300
CELLTABLEFORMAT
  1
TABLEFORMAT_BEGIN
 90
        1
170
     1
 91
      532
 92
        0
 62
   257
 93
        1
300
CONTENTFORMAT
  1
CONTENTFORMAT_BEGIN
 90
        0
 91
        0
 92
      512
 93
        0
300

 40
0.0
140
1.0
 94
        7
 62
     0
340
0
144
0.18
309
CONTENTFORMAT_END
171
     0
 94
        0
309
TABLEFORMAT_END
309
FORMATTEDTABLEDATACELL_END
  1
TABLECELL_BEGIN
 90
        0
 91
        0
309
TABLECELL_END
300
CELL
  1
LINKEDTABLEDATACELL_BEGIN
 90
        0
300

 91
        0
301
CUSTOMDATA
  1
DATAMAP_BEGIN
 90
        0
309
DATAMAP_END
 92
        0
 95
        1
302
CONTENT
  1
CELLCONTENT_BEGIN
 90
        1
300
VALUE
 90
        4
  1
{\fArial Cyr|b0|i0|c0;\H0.6667x;4,27
 91
        0
309
CELLCONTENT_END
  1
FORMATTEDCELLCONTENT_BEGIN
170
     1
300
CONTENTFORMAT
  1
CONTENTFORMAT_BEGIN
 90
        3
 91
        0
 92
        4
 93
        0
300

 40
0.0
140
1.0
 94
        1
 62
     0
340
0
144
0.18
309
CONTENTFORMAT_END
309
FORMATTEDCELLCONTENT_END
309
LINKEDTABLEDATACELL_END
  1
FORMATTEDTABLEDATACELL_BEGIN
300
CELLTABLEFORMAT
  1
TABLEFORMAT_BEGIN
 90
        1
170
     1
 91
      532
 92
        0
 62
   257
 93
        1
300
CONTENTFORMAT
  1
CONTENTFORMAT_BEGIN
 90
        0
 91
        0
 92
      512
 93
        0
300

 40
0.0
140
1.0
 94
        8
 62
     0
340
0
144
0.18
309
CONTENTFORMAT_END
171
     0
 94
        0
309
TABLEFORMAT_END
309
FORMATTEDTABLEDATACELL_END
  1
TABLECELL_BEGIN
 90
        0
 91
        0
309
TABLECELL_END
300
CELL
  1
LINKEDTABLEDATACELL_BEGIN
 90
        0
300

 91
        0
301
CUSTOMDATA
  1
DATAMAP_BEGIN
 90
        0
309
DATAMAP_END
 92
        0
 95
        1
302
CONTENT
  1
CELLCONTENT_BEGIN
 90
        1
300
VALUE
 90
        4
  1
{\fArial Cyr|b0|i0|c0;\H0.6667x;12,81
 91
        0
309
CELLCONTENT_END
  1
FORMATTEDCELLCONTENT_BEGIN
170
     1
300
CONTENTFORMAT
  1
CONTENTFORMAT_BEGIN
 90
        3
 91
        0
 92
        4
 93
        0
300

 40
0.0
140
1.0
 94
        1
 62
     0
340
0
144
0.18
309
CONTENTFORMAT_END
309
FORMATTEDCELLCONTENT_END
309
LINKEDTABLEDATACELL_END
  1
FORMATTEDTABLEDATACELL_BEGIN
300
CELLTABLEFORMAT
  1
TABLEFORMAT_BEGIN
 90
        1
170
     1
 91
      532
 92
        0
 62
   257
 93
        1
300
CONTENTFORMAT
  1
CONTENTFORMAT_BEGIN
 90
        0
 91
        0
 92
      512
 93
        0
300

 40
0.0
140
1.0
 94
        8
 62
     0
340
0
144
0.18
309
CONTENTFORMAT_END
171
     0
 94
        0
309
TABLEFORMAT_END
309
FORMATTEDTABLEDATACELL_END
  1
TABLECELL_BEGIN
 90
        0
 91
        0
309
TABLECELL_END
300
CELL
  1
LINKEDTABLEDATACELL_BEGIN
 90
        0
300

 91
        0
301
CUSTOMDATA
  1
DATAMAP_BEGIN
 90
        0
309
DATAMAP_END
 92
        0
 95
        1
302
CONTENT
  1
CELLCONTENT_BEGIN
 90
        1
300
VALUE
 90
        4
  1
{\fArial Cyr|b0|i0|c0;\H0.6667x;21,81
 91
        0
309
CELLCONTENT_END
  1
FORMATTEDCELLCONTENT_BEGIN
170
     1
300
CONTENTFORMAT
  1
CONTENTFORMAT_BEGIN
 90
        3
 91
        0
 92
        4
 93
        0
300

 40
0.0
140
1.0
 94
        1
 62
     0
340
0
144
0.18
309
CONTENTFORMAT_END
309
FORMATTEDCELLCONTENT_END
309
LINKEDTABLEDATACELL_END
  1
FORMATTEDTABLEDATACELL_BEGIN
300
CELLTABLEFORMAT
  1
TABLEFORMAT_BEGIN
 90
        1
170
     1
 91
      532
 92
        0
 62
   257
 93
        1
300
CONTENTFORMAT
  1
CONTENTFORMAT_BEGIN
 90
        0
 91
        0
 92
      512
 93
        0
300

 40
0.0
140
1.0
 94
        8
 62
     0
340
0
144
0.18
309
CONTENTFORMAT_END
171
     0
 94
        0
309
TABLEFORMAT_END
309
FORMATTEDTABLEDATACELL_END
  1
TABLECELL_BEGIN
 90
        0
 91
        0
309
TABLECELL_END
 91
        0
301
CUSTOMDATA
  1
DATAMAP_BEGIN
 90
        0
309
DATAMAP_END
309
LINKEDTABLEDATAROW_END
  1
FORMATTEDTABLEDATAROW_BEGIN
300
ROWTABLEFORMAT
  1
TABLEFORMAT_BEGIN
 90
        2
170
     0
309
TABLEFORMAT_END
309
FORMATTEDTABLEDATAROW_END
  1
TABLEROW_BEGIN
 90
        0
 40
5.291666666666666
309
TABLEROW_END
301
ROW
  1
LINKEDTABLEDATAROW_BEGIN
 90
        4
300
CELL
  1
LINKEDTABLEDATACELL_BEGIN
 90
        0
300

 91
        0
301
CUSTOMDATA
  1
DATAMAP_BEGIN
 90
        0
309
DATAMAP_END
 92
        0
 95
        1
302
CONTENT
  1
CELLCONTENT_BEGIN
 90
        1
300
VALUE
 90
        4
  1
{\fArial Cyr|b0|i0|c0;\H0.6667x;Масса матрицы, тонн
 91
        0
309
CELLCONTENT_END
  1
FORMATTEDCELLCONTENT_BEGIN
170
     1
300
CONTENTFORMAT
  1
CONTENTFORMAT_BEGIN
 90
        3
 91
        0
 92
        4
 93
        0
300

 40
0.0
140
1.0
 94
        1
 62
     0
340
0
144
0.18
309
CONTENTFORMAT_END
309
FORMATTEDCELLCONTENT_END
309
LINKEDTABLEDATACELL_END
  1
FORMATTEDTABLEDATACELL_BEGIN
300
CELLTABLEFORMAT
  1
TABLEFORMAT_BEGIN
 90
        1
170
     1
 91
      532
 92
        0
 62
   257
 93
        1
300
CONTENTFORMAT
  1
CONTENTFORMAT_BEGIN
 90
        0
 91
        0
 92
      512
 93
        0
300

 40
0.0
140
1.0
 94
        7
 62
     0
340
0
144
0.18
309
CONTENTFORMAT_END
171
     0
 94
        0
309
TABLEFORMAT_END
309
FORMATTEDTABLEDATACELL_END
  1
TABLECELL_BEGIN
 90
        0
 91
        0
309
TABLECELL_END
300
CELL
  1
LINKEDTABLEDATACELL_BEGIN
 90
        0
300

 91
        0
301
CUSTOMDATA
  1
DATAMAP_BEGIN
 90
        0
309
DATAMAP_END
 92
        0
 95
        1
302
CONTENT
  1
CELLCONTENT_BEGIN
 90
        1
300
VALUE
 90
        4
  1
{\fArial Cyr|b0|i0|c0;\H0.6667x;4,27
 91
        0
309
CELLCONTENT_END
  1
FORMATTEDCELLCONTENT_BEGIN
170
     1
300
CONTENTFORMAT
  1
CONTENTFORMAT_BEGIN
 90
        3
 91
        0
 92
        4
 93
        0
300

 40
0.0
140
1.0
 94
        1
 62
     0
340
0
144
0.18
309
CONTENTFORMAT_END
309
FORMATTEDCELLCONTENT_END
309
LINKEDTABLEDATACELL_END
  1
FORMATTEDTABLEDATACELL_BEGIN
300
CELLTABLEFORMAT
  1
TABLEFORMAT_BEGIN
 90
        1
170
     1
 91
      532
 92
        0
 62
   257
 93
        1
300
CONTENTFORMAT
  1
CONTENTFORMAT_BEGIN
 90
        0
 91
        0
 92
      512
 93
        0
300

 40
0.0
140
1.0
 94
        8
 62
     0
340
0
144
0.18
309
CONTENTFORMAT_END
171
     0
 94
        0
309
TABLEFORMAT_END
309
FORMATTEDTABLEDATACELL_END
  1
TABLECELL_BEGIN
 90
        0
 91
        0
309
TABLECELL_END
300
CELL
  1
LINKEDTABLEDATACELL_BEGIN
 90
        0
300

 91
        0
301
CUSTOMDATA
  1
DATAMAP_BEGIN
 90
        0
309
DATAMAP_END
 92
        0
 95
        1
302
CONTENT
  1
CELLCONTENT_BEGIN
 90
        1
300
VALUE
 90
        4
  1
{\fArial Cyr|b0|i0|c0;\H0.6667x;96,70
 91
        0
309
CELLCONTENT_END
  1
FORMATTEDCELLCONTENT_BEGIN
170
     1
300
CONTENTFORMAT
  1
CONTENTFORMAT_BEGIN
 90
        3
 91
        0
 92
        4
 93
        0
300

 40
0.0
140
1.0
 94
        1
 62
     0
340
0
144
0.18
309
CONTENTFORMAT_END
309
FORMATTEDCELLCONTENT_END
309
LINKEDTABLEDATACELL_END
  1
FORMATTEDTABLEDATACELL_BEGIN
300
CELLTABLEFORMAT
  1
TABLEFORMAT_BEGIN
 90
        1
170
     1
 91
      532
 92
        0
 62
   257
 93
        1
300
CONTENTFORMAT
  1
CONTENTFORMAT_BEGIN
 90
        0
 91
        0
 92
      512
 93
        0
300

 40
0.0
140
1.0
 94
        8
 62
     0
340
0
144
0.18
309
CONTENTFORMAT_END
171
     0
 94
        0
309
TABLEFORMAT_END
309
FORMATTEDTABLEDATACELL_END
  1
TABLECELL_BEGIN
 90
        0
 91
        0
309
TABLECELL_END
300
CELL
  1
LINKEDTABLEDATACELL_BEGIN
 90
        0
300

 91
        0
301
CUSTOMDATA
  1
DATAMAP_BEGIN
 90
        0
309
DATAMAP_END
 92
        0
 95
        1
302
CONTENT
  1
CELLCONTENT_BEGIN
 90
        1
300
VALUE
 90
        4
  1
{\fArial Cyr|b0|i0|c0;\H0.6667x;59,32
 91
        0
309
CELLCONTENT_END
  1
FORMATTEDCELLCONTENT_BEGIN
170
     1
300
CONTENTFORMAT
  1
CONTENTFORMAT_BEGIN
 90
        3
 91
        0
 92
        4
 93
        0
300

 40
0.0
140
1.0
 94
        1
 62
     0
340
0
144
0.18
309
CONTENTFORMAT_END
309
FORMATTEDCELLCONTENT_END
309
LINKEDTABLEDATACELL_END
  1
FORMATTEDTABLEDATACELL_BEGIN
300
CELLTABLEFORMAT
  1
TABLEFORMAT_BEGIN
 90
        1
170
     1
 91
      532
 92
        0
 62
   257
 93
        1
300
CONTENTFORMAT
  1
CONTENTFORMAT_BEGIN
 90
        0
 91
        0
 92
      512
 93
        0
300

 40
0.0
140
1.0
 94
        8
 62
     0
340
0
144
0.18
309
CONTENTFORMAT_END
171
     0
 94
        0
309
TABLEFORMAT_END
309
FORMATTEDTABLEDATACELL_END
  1
TABLECELL_BEGIN
 90
        0
 91
        0
309
TABLECELL_END
 91
        0
301
CUSTOMDATA
  1
DATAMAP_BEGIN
 90
        0
309
DATAMAP_END
309
LINKEDTABLEDATAROW_END
  1
FORMATTEDTABLEDATAROW_BEGIN
300
ROWTABLEFORMAT
  1
TABLEFORMAT_BEGIN
 90
        2
170
     0
309
TABLEFORMAT_END
309
FORMATTEDTABLEDATAROW_END
  1
TABLEROW_BEGIN
 90
        0
 40
5.291666666666666
309
TABLEROW_END
301
ROW
  1
LINKEDTABLEDATAROW_BEGIN
 90
        4
300
CELL
  1
LINKEDTABLEDATACELL_BEGIN
 90
        0
300

 91
        0
301
CUSTOMDATA
  1
DATAMAP_BEGIN
 90
        0
309
DATAMAP_END
 92
        0
 95
        1
302
CONTENT
  1
CELLCONTENT_BEGIN
 90
        1
300
VALUE
 90
        4
  1
{\fArial Cyr|b0|i0|c0;\H0.6667x;Диаметр/высота, м
 91
        0
309
CELLCONTENT_END
  1
FORMATTEDCELLCONTENT_BEGIN
170
     1
300
CONTENTFORMAT
  1
CONTENTFORMAT_BEGIN
 90
        3
 91
        0
 92
        4
 93
        0
300

 40
0.0
140
1.0
 94
        1
 62
     0
340
0
144
0.18
309
CONTENTFORMAT_END
309
FORMATTEDCELLCONTENT_END
309
LINKEDTABLEDATACELL_END
  1
FORMATTEDTABLEDATACELL_BEGIN
300
CELLTABLEFORMAT
  1
TABLEFORMAT_BEGIN
 90
        1
170
     1
 91
      532
 92
        0
 62
   257
 93
        1
300
CONTENTFORMAT
  1
CONTENTFORMAT_BEGIN
 90
        0
 91
        0
 92
      512
 93
        0
300

 40
0.0
140
1.0
 94
        7
 62
     0
340
0
144
0.18
309
CONTENTFORMAT_END
171
     0
 94
        0
309
TABLEFORMAT_END
309
FORMATTEDTABLEDATACELL_END
  1
TABLECELL_BEGIN
 90
        0
 91
        0
309
TABLECELL_END
300
CELL
  1
LINKEDTABLEDATACELL_BEGIN
 90
        0
300

 91
        0
301
CUSTOMDATA
  1
DATAMAP_BEGIN
 90
        0
309
DATAMAP_END
 92
        0
 95
        1
302
CONTENT
  1
CELLCONTENT_BEGIN
 90
        1
300
VALUE
 90
        4
  1
{\fArial Cyr|b0|i0|c0;\H0.6667x;1,76
 91
        0
309
CELLCONTENT_END
  1
FORMATTEDCELLCONTENT_BEGIN
170
     1
300
CONTENTFORMAT
  1
CONTENTFORMAT_BEGIN
 90
        3
 91
        0
 92
        4
 93
        0
300

 40
0.0
140
1.0
 94
        1
 62
     0
340
0
144
0.18
309
CONTENTFORMAT_END
309
FORMATTEDCELLCONTENT_END
309
LINKEDTABLEDATACELL_END
  1
FORMATTEDTABLEDATACELL_BEGIN
300
CELLTABLEFORMAT
  1
TABLEFORMAT_BEGIN
 90
        1
170
     1
 91
      532
 92
        0
 62
   257
 93
        1
300
CONTENTFORMAT
  1
CONTENTFORMAT_BEGIN
 90
        0
 91
        0
 92
      512
 93
        0
300

 40
0.0
140
1.0
 94
        8
 62
     0
340
0
144
0.18
309
CONTENTFORMAT_END
171
     0
 94
        0
309
TABLEFORMAT_END
309
FORMATTEDTABLEDATACELL_END
  1
TABLECELL_BEGIN
 90
        0
 91
        0
309
TABLECELL_END
300
CELL
  1
LINKEDTABLEDATACELL_BEGIN
 90
        0
300

 91
        0
301
CUSTOMDATA
  1
DATAMAP_BEGIN
 90
        0
309
DATAMAP_END
 92
        0
 95
        1
302
CONTENT
  1
CELLCONTENT_BEGIN
 90
        1
300
VALUE
 90
        4
  1
{\fArial Cyr|b0|i0|c0;\H0.6667x;2,54
 91
        0
309
CELLCONTENT_END
  1
FORMATTEDCELLCONTENT_BEGIN
170
     1
300
CONTENTFORMAT
  1
CONTENTFORMAT_BEGIN
 90
        3
 91
        0
 92
        4
 93
        0
300

 40
0.0
140
1.0
 94
        1
 62
     0
340
0
144
0.18
309
CONTENTFORMAT_END
309
FORMATTEDCELLCONTENT_END
309
LINKEDTABLEDATACELL_END
  1
FORMATTEDTABLEDATACELL_BEGIN
300
CELLTABLEFORMAT
  1
TABLEFORMAT_BEGIN
 90
        1
170
     1
 91
      532
 92
        0
 62
   257
 93
        1
300
CONTENTFORMAT
  1
CONTENTFORMAT_BEGIN
 90
        0
 91
        0
 92
      512
 93
        0
300

 40
0.0
140
1.0
 94
        8
 62
     0
340
0
144
0.18
309
CONTENTFORMAT_END
171
     0
 94
        0
309
TABLEFORMAT_END
309
FORMATTEDTABLEDATACELL_END
  1
TABLECELL_BEGIN
 90
        0
 91
        0
309
TABLECELL_END
300
CELL
  1
LINKEDTABLEDATACELL_BEGIN
 90
        0
300

 91
        0
301
CUSTOMDATA
  1
DATAMAP_BEGIN
 90
        0
309
DATAMAP_END
 92
        0
 95
        1
302
CONTENT
  1
CELLCONTENT_BEGIN
 90
        1
300
VALUE
 90
        4
  1
{\fArial Cyr|b0|i0|c0;\H0.6667x;3,03
 91
        0
309
CELLCONTENT_END
  1
FORMATTEDCELLCONTENT_BEGIN
170
     1
300
CONTENTFORMAT
  1
CONTENTFORMAT_BEGIN
 90
        3
 91
        0
 92
        4
 93
        0
300

 40
0.0
140
1.0
 94
        1
 62
     0
340
0
144
0.18
309
CONTENTFORMAT_END
309
FORMATTEDCELLCONTENT_END
309
LINKEDTABLEDATACELL_END
  1
FORMATTEDTABLEDATACELL_BEGIN
300
CELLTABLEFORMAT
  1
TABLEFORMAT_BEGIN
 90
        1
170
     1
 91
      532
 92
        0
 62
   257
 93
        1
300
CONTENTFORMAT
  1
CONTENTFORMAT_BEGIN
 90
        0
 91
        0
 92
      512
 93
        0
300

 40
0.0
140
1.0
 94
        8
 62
     0
340
0
144
0.18
309
CONTENTFORMAT_END
171
     0
 94
        0
309
TABLEFORMAT_END
309
FORMATTEDTABLEDATACELL_END
  1
TABLECELL_BEGIN
 90
        0
 91
        0
309
TABLECELL_END
 91
        0
301
CUSTOMDATA
  1
DATAMAP_BEGIN
 90
        0
309
DATAMAP_END
309
LINKEDTABLEDATAROW_END
  1
FORMATTEDTABLEDATAROW_BEGIN
300
ROWTABLEFORMAT
  1
TABLEFORMAT_BEGIN
 90
        2
170
     0
309
TABLEFORMAT_END
309
FORMATTEDTABLEDATAROW_END
  1
TABLEROW_BEGIN
 90
        0
 40
5.291666666666666
309
TABLEROW_END
301
ROW
  1
LINKEDTABLEDATAROW_BEGIN
 90
        4
300
CELL
  1
LINKEDTABLEDATACELL_BEGIN
 90
        0
300

 91
        0
301
CUSTOMDATA
  1
DATAMAP_BEGIN
 90
        0
309
DATAMAP_END
 92
        0
 95
        1
302
CONTENT
  1
CELLCONTENT_BEGIN
 90
        1
300
VALUE
 90
        4
  1
{\fArial Cyr|b0|i0|c0;\H0.6667x;Площадь поверхности, м2
 91
        0
309
CELLCONTENT_END
  1
FORMATTEDCELLCONTENT_BEGIN
170
     1
300
CONTENTFORMAT
  1
CONTENTFORMAT_BEGIN
 90
        3
 91
        0
 92
        4
 93
        0
300

 40
0.0
140
1.0
 94
        1
 62
     0
340
0
144
0.18
309
CONTENTFORMAT_END
309
FORMATTEDCELLCONTENT_END
309
LINKEDTABLEDATACELL_END
  1
FORMATTEDTABLEDATACELL_BEGIN
300
CELLTABLEFORMAT
  1
TABLEFORMAT_BEGIN
 90
        1
170
     1
 91
      532
 92
        0
 62
   257
 93
        1
300
CONTENTFORMAT
  1
CONTENTFORMAT_BEGIN
 90
        0
 91
        0
 92
      512
 93
        0
300

 40
0.0
140
1.0
 94
        7
 62
     0
340
0
144
0.18
309
CONTENTFORMAT_END
171
     0
 94
        0
309
TABLEFORMAT_END
309
FORMATTEDTABLEDATACELL_END
  1
TABLECELL_BEGIN
 90
        0
 91
        0
309
TABLECELL_END
300
CELL
  1
LINKEDTABLEDATACELL_BEGIN
 90
        0
300

 91
        0
301
CUSTOMDATA
  1
DATAMAP_BEGIN
 90
        0
309
DATAMAP_END
 92
        0
 95
        1
302
CONTENT
  1
CELLCONTENT_BEGIN
 90
        1
300
VALUE
 90
        4
  1
{\fArial Cyr|b0|i0|c0;\H0.6667x;12,1
 91
        0
309
CELLCONTENT_END
  1
FORMATTEDCELLCONTENT_BEGIN
170
     1
300
CONTENTFORMAT
  1
CONTENTFORMAT_BEGIN
 90
        3
 91
        0
 92
        4
 93
        0
300

 40
0.0
140
1.0
 94
        1
 62
     0
340
0
144
0.18
309
CONTENTFORMAT_END
309
FORMATTEDCELLCONTENT_END
309
LINKEDTABLEDATACELL_END
  1
FORMATTEDTABLEDATACELL_BEGIN
300
CELLTABLEFORMAT
  1
TABLEFORMAT_BEGIN
 90
        1
170
     1
 91
      532
 92
        0
 62
   257
 93
        1
300
CONTENTFORMAT
  1
CONTENTFORMAT_BEGIN
 90
        0
 91
        0
 92
      512
 93
        0
300

 40
0.0
140
1.0
 94
        8
 62
     0
340
0
144
0.18
309
CONTENTFORMAT_END
171
     0
 94
        0
309
TABLEFORMAT_END
309
FORMATTEDTABLEDATACELL_END
  1
TABLECELL_BEGIN
 90
        0
 91
        0
309
TABLECELL_END
300
CELL
  1
LINKEDTABLEDATACELL_BEGIN
 90
        0
300

 91
        0
301
CUSTOMDATA
  1
DATAMAP_BEGIN
 90
        0
309
DATAMAP_END
 92
        0
 95
        1
302
CONTENT
  1
CELLCONTENT_BEGIN
 90
        1
300
VALUE
 90
        4
  1
{\fArial Cyr|b0|i0|c0;\H0.6667x;25,3
 91
        0
309
CELLCONTENT_END
  1
FORMATTEDCELLCONTENT_BEGIN
170
     1
300
CONTENTFORMAT
  1
CONTENTFORMAT_BEGIN
 90
        3
 91
        0
 92
        4
 93
        0
300

 40
0.0
140
1.0
 94
        1
 62
     0
340
0
144
0.18
309
CONTENTFORMAT_END
309
FORMATTEDCELLCONTENT_END
309
LINKEDTABLEDATACELL_END
  1
FORMATTEDTABLEDATACELL_BEGIN
300
CELLTABLEFORMAT
  1
TABLEFORMAT_BEGIN
 90
        1
170
     1
 91
      532
 92
        0
 62
   257
 93
        1
300
CONTENTFORMAT
  1
CONTENTFORMAT_BEGIN
 90
        0
 91
        0
 92
      512
 93
        0
300

 40
0.0
140
1.0
 94
        8
 62
     0
340
0
144
0.18
309
CONTENTFORMAT_END
171
     0
 94
        0
309
TABLEFORMAT_END
309
FORMATTEDTABLEDATACELL_END
  1
TABLECELL_BEGIN
 90
        0
 91
        0
309
TABLECELL_END
300
CELL
  1
LINKEDTABLEDATACELL_BEGIN
 90
        0
300

 91
        0
301
CUSTOMDATA
  1
DATAMAP_BEGIN
 90
        0
309
DATAMAP_END
 92
        0
 95
        1
302
CONTENT
  1
CELLCONTENT_BEGIN
 90
        1
300
VALUE
 90
        4
  1
{\fArial Cyr|b0|i0|c0;\H0.6667x;36,0
 91
        0
309
CELLCONTENT_END
  1
FORMATTEDCELLCONTENT_BEGIN
170
     1
300
CONTENTFORMAT
  1
CONTENTFORMAT_BEGIN
 90
        3
 91
        0
 92
        4
 93
        0
300

 40
0.0
140
1.0
 94
        1
 62
     0
340
0
144
0.18
309
CONTENTFORMAT_END
309
FORMATTEDCELLCONTENT_END
309
LINKEDTABLEDATACELL_END
  1
FORMATTEDTABLEDATACELL_BEGIN
300
CELLTABLEFORMAT
  1
TABLEFORMAT_BEGIN
 90
        1
170
     1
 91
      532
 92
        0
 62
   257
 93
        1
300
CONTENTFORMAT
  1
CONTENTFORMAT_BEGIN
 90
        0
 91
        0
 92
      512
 93
        0
300

 40
0.0
140
1.0
 94
        8
 62
     0
340
0
144
0.18
309
CONTENTFORMAT_END
171
     0
 94
        0
309
TABLEFORMAT_END
309
FORMATTEDTABLEDATACELL_END
  1
TABLECELL_BEGIN
 90
        0
 91
        0
309
TABLECELL_END
 91
        0
301
CUSTOMDATA
  1
DATAMAP_BEGIN
 90
        0
309
DATAMAP_END
309
LINKEDTABLEDATAROW_END
  1
FORMATTEDTABLEDATAROW_BEGIN
300
ROWTABLEFORMAT
  1
TABLEFORMAT_BEGIN
 90
        2
170
     0
309
TABLEFORMAT_END
309
FORMATTEDTABLEDATAROW_END
  1
TABLEROW_BEGIN
 90
        0
 40
1.0
309
TABLEROW_END
301
ROW
  1
LINKEDTABLEDATAROW_BEGIN
 90
        4
300
CELL
  1
LINKEDTABLEDATACELL_BEGIN
 90
        0
300

 91
        0
301
CUSTOMDATA
  1
DATAMAP_BEGIN
 90
        0
309
DATAMAP_END
 92
        0
 95
        1
302
CONTENT
  1
CELLCONTENT_BEGIN
 90
        1
300
VALUE
 90
        4
  1
{\fArial Cyr|b0|i0|c0;\H0.6667x;Потери в окр. Среду, квт
 91
        0
309
CELLCONTENT_END
  1
FORMATTEDCELLCONTENT_BEGIN
170
     1
300
CONTENTFORMAT
  1
CONTENTFORMAT_BEGIN
 90
        3
 91
        0
 92
        4
 93
        0
300

 40
0.0
140
1.0
 94
        1
 62
     0
340
0
144
0.18
309
CONTENTFORMAT_END
309
FORMATTEDCELLCONTENT_END
309
LINKEDTABLEDATACELL_END
  1
FORMATTEDTABLEDATACELL_BEGIN
300
CELLTABLEFORMAT
  1
TABLEFORMAT_BEGIN
 90
        1
170
     1
 91
      532
 92
        0
 62
   257
 93
        1
300
CONTENTFORMAT
  1
CONTENTFORMAT_BEGIN
 90
        0
 91
        0
 92
      512
 93
        0
300

 40
0.0
140
1.0
 94
        7
 62
     0
340
0
144
0.18
309
CONTENTFORMAT_END
171
     0
 94
        0
309
TABLEFORMAT_END
309
FORMATTEDTABLEDATACELL_END
  1
TABLECELL_BEGIN
 90
        0
 91
        0
309
TABLECELL_END
300
CELL
  1
LINKEDTABLEDATACELL_BEGIN
 90
        0
300

 91
        0
301
CUSTOMDATA
  1
DATAMAP_BEGIN
 90
        0
309
DATAMAP_END
 92
        0
 95
        1
302
CONTENT
  1
CELLCONTENT_BEGIN
 90
        1
300
VALUE
 90
        4
  1
{\fArial Cyr|b0|i0|c0;\H0.6667x;0,38
 91
        0
309
CELLCONTENT_END
  1
FORMATTEDCELLCONTENT_BEGIN
170
     1
300
CONTENTFORMAT
  1
CONTENTFORMAT_BEGIN
 90
        3
 91
        0
 92
        4
 93
        0
300

 40
0.0
140
1.0
 94
        1
 62
     0
340
0
144
0.18
309
CONTENTFORMAT_END
309
FORMATTEDCELLCONTENT_END
309
LINKEDTABLEDATACELL_END
  1
FORMATTEDTABLEDATACELL_BEGIN
300
CELLTABLEFORMAT
  1
TABLEFORMAT_BEGIN
 90
        1
170
     1
 91
      532
 92
        0
 62
   257
 93
        1
300
CONTENTFORMAT
  1
CONTENTFORMAT_BEGIN
 90
        0
 91
        0
 92
      512
 93
        0
300

 40
0.0
140
1.0
 94
        8
 62
     0
340
0
144
0.18
309
CONTENTFORMAT_END
171
     0
 94
        0
309
TABLEFORMAT_END
309
FORMATTEDTABLEDATACELL_END
  1
TABLECELL_BEGIN
 90
        0
 91
        0
309
TABLECELL_END
300
CELL
  1
LINKEDTABLEDATACELL_BEGIN
 90
        0
300

 91
        0
301
CUSTOMDATA
  1
DATAMAP_BEGIN
 90
        0
309
DATAMAP_END
 92
        0
 95
        1
302
CONTENT
  1
CELLCONTENT_BEGIN
 90
        1
300
VALUE
 90
        4
  1
{\fArial Cyr|b0|i0|c0;\H0.6667x;0,58
 91
        0
309
CELLCONTENT_END
  1
FORMATTEDCELLCONTENT_BEGIN
170
     1
300
CONTENTFORMAT
  1
CONTENTFORMAT_BEGIN
 90
        3
 91
        0
 92
        4
 93
        0
300

 40
0.0
140
1.0
 94
        1
 62
     0
340
0
144
0.18
309
CONTENTFORMAT_END
309
FORMATTEDCELLCONTENT_END
309
LINKEDTABLEDATACELL_END
  1
FORMATTEDTABLEDATACELL_BEGIN
300
CELLTABLEFORMAT
  1
TABLEFORMAT_BEGIN
 90
        1
170
     1
 91
      532
 92
        0
 62
   257
 93
        1
300
CONTENTFORMAT
  1
CONTENTFORMAT_BEGIN
 90
        0
 91
        0
 92
      512
 93
        0
300

 40
0.0
140
1.0
 94
        8
 62
     0
340
0
144
0.18
309
CONTENTFORMAT_END
171
     0
 94
        0
309
TABLEFORMAT_END
309
FORMATTEDTABLEDATACELL_END
  1
TABLECELL_BEGIN
 90
        0
 91
        0
309
TABLECELL_END
300
CELL
  1
LINKEDTABLEDATACELL_BEGIN
 90
        0
300

 91
        0
301
CUSTOMDATA
  1
DATAMAP_BEGIN
 90
        0
309
DATAMAP_END
 92
        0
 95
        1
302
CONTENT
  1
CELLCONTENT_BEGIN
 90
        1
300
VALUE
 90
        4
  1
{\fArial Cyr|b0|i0|c0;\H0.6667x;0,83
 91
        0
309
CELLCONTENT_END
  1
FORMATTEDCELLCONTENT_BEGIN
170
     1
300
CONTENTFORMAT
  1
CONTENTFORMAT_BEGIN
 90
        3
 91
        0
 92
        4
 93
        0
300

 40
0.0
140
1.0
 94
        1
 62
     0
340
0
144
0.18
309
CONTENTFORMAT_END
309
FORMATTEDCELLCONTENT_END
309
LINKEDTABLEDATACELL_END
  1
FORMATTEDTABLEDATACELL_BEGIN
300
CELLTABLEFORMAT
  1
TABLEFORMAT_BEGIN
 90
        1
170
     1
 91
      532
 92
        0
 62
   257
 93
        1
300
CONTENTFORMAT
  1
CONTENTFORMAT_BEGIN
 90
        0
 91
        0
 92
      512
 93
        0
300

 40
0.0
140
1.0
 94
        8
 62
     0
340
0
144
0.18
309
CONTENTFORMAT_END
171
     0
 94
        0
309
TABLEFORMAT_END
309
FORMATTEDTABLEDATACELL_END
  1
TABLECELL_BEGIN
 90
        0
 91
        0
309
TABLECELL_END
 91
        0
301
CUSTOMDATA
  1
DATAMAP_BEGIN
 90
        0
309
DATAMAP_END
309
LINKEDTABLEDATAROW_END
  1
FORMATTEDTABLEDATAROW_BEGIN
300
ROWTABLEFORMAT
  1
TABLEFORMAT_BEGIN
 90
        2
170
     0
309
TABLEFORMAT_END
309
FORMATTEDTABLEDATAROW_END
  1
TABLEROW_BEGIN
 90
        0
 40
1.0
309
TABLEROW_END
301
ROW
  1
LINKEDTABLEDATAROW_BEGIN
 90
        4
300
CELL
  1
LINKEDTABLEDATACELL_BEGIN
 90
        0
300

 91
        0
301
CUSTOMDATA
  1
DATAMAP_BEGIN
 90
        0
309
DATAMAP_END
 92
        0
 95
        1
302
CONTENT
  1
CELLCONTENT_BEGIN
 90
        1
300
VALUE
 90
        4
  1
{\fArial Cyr|b0|i0|c0;\H0.6667x;Время заряда, час
 91
        0
309
CELLCONTENT_END
  1
FORMATTEDCELLCONTENT_BEGIN
170
     1
300
CONTENTFORMAT
  1
CONTENTFORMAT_BEGIN
 90
        3
 91
        0
 92
        4
 93
        0
300

 40
0.0
140
1.0
 94
        1
 62
     0
340
0
144
0.18
309
CONTENTFORMAT_END
309
FORMATTEDCELLCONTENT_END
309
LINKEDTABLEDATACELL_END
  1
FORMATTEDTABLEDATACELL_BEGIN
300
CELLTABLEFORMAT
  1
TABLEFORMAT_BEGIN
 90
        1
170
     1
 91
      532
 92
        0
 62
   257
 93
        1
300
CONTENTFORMAT
  1
CONTENTFORMAT_BEGIN
 90
        0
 91
        0
 92
      512
 93
        0
300

 40
0.0
140
1.0
 94
        7
 62
     0
340
0
144
0.18
309
CONTENTFORMAT_END
171
     0
 94
        0
309
TABLEFORMAT_END
309
FORMATTEDTABLEDATACELL_END
  1
TABLECELL_BEGIN
 90
        0
 91
        0
309
TABLECELL_END
300
CELL
  1
LINKEDTABLEDATACELL_BEGIN
 90
        0
300

 91
        0
301
CUSTOMDATA
  1
DATAMAP_BEGIN
 90
        0
309
DATAMAP_END
 92
        0
 95
        1
302
CONTENT
  1
CELLCONTENT_BEGIN
 90
        1
300
VALUE
 90
        4
  1
{\fArial Cyr|b0|i0|c0;\H0.6667x;7,97
 91
        0
309
CELLCONTENT_END
  1
FORMATTEDCELLCONTENT_BEGIN
170
     1
300
CONTENTFORMAT
  1
CONTENTFORMAT_BEGIN
 90
        3
 91
        0
 92
        4
 93
        0
300

 40
0.0
140
1.0
 94
        1
 62
     0
340
0
144
0.18
309
CONTENTFORMAT_END
309
FORMATTEDCELLCONTENT_END
309
LINKEDTABLEDATACELL_END
  1
FORMATTEDTABLEDATACELL_BEGIN
300
CELLTABLEFORMAT
  1
TABLEFORMAT_BEGIN
 90
        1
170
     1
 91
      532
 92
        0
 62
   257
 93
        1
300
CONTENTFORMAT
  1
CONTENTFORMAT_BEGIN
 90
        0
 91
        0
 92
      512
 93
        0
300

 40
0.0
140
1.0
 94
        8
 62
     0
340
0
144
0.18
309
CONTENTFORMAT_END
171
     0
 94
        0
309
TABLEFORMAT_END
309
FORMATTEDTABLEDATACELL_END
  1
TABLECELL_BEGIN
 90
        0
 91
        0
309
TABLECELL_END
300
CELL
  1
LINKEDTABLEDATACELL_BEGIN
 90
        0
300

 91
        0
301
CUSTOMDATA
  1
DATAMAP_BEGIN
 90
        0
309
DATAMAP_END
 92
        0
 95
        1
302
CONTENT
  1
CELLCONTENT_BEGIN
 90
        1
300
VALUE
 90
        4
  1
{\fArial Cyr|b0|i0|c0;\H0.6667x;7,70
 91
        0
309
CELLCONTENT_END
  1
FORMATTEDCELLCONTENT_BEGIN
170
     1
300
CONTENTFORMAT
  1
CONTENTFORMAT_BEGIN
 90
        3
 91
        0
 92
        4
 93
        0
300

 40
0.0
140
1.0
 94
        1
 62
     0
340
0
144
0.18
309
CONTENTFORMAT_END
309
FORMATTEDCELLCONTENT_END
309
LINKEDTABLEDATACELL_END
  1
FORMATTEDTABLEDATACELL_BEGIN
300
CELLTABLEFORMAT
  1
TABLEFORMAT_BEGIN
 90
        1
170
     1
 91
      532
 92
        0
 62
   257
 93
        1
300
CONTENTFORMAT
  1
CONTENTFORMAT_BEGIN
 90
        0
 91
        0
 92
      512
 93
        0
300

 40
0.0
140
1.0
 94
        8
 62
     0
340
0
144
0.18
309
CONTENTFORMAT_END
171
     0
 94
        0
309
TABLEFORMAT_END
309
FORMATTEDTABLEDATACELL_END
  1
TABLECELL_BEGIN
 90
        0
 91
        0
309
TABLECELL_END
300
CELL
  1
LINKEDTABLEDATACELL_BEGIN
 90
        0
300

 91
        0
301
CUSTOMDATA
  1
DATAMAP_BEGIN
 90
        0
309
DATAMAP_END
 92
        0
 95
        1
302
CONTENT
  1
CELLCONTENT_BEGIN
 90
        1
300
VALUE
 90
        4
  1
{\fArial Cyr|b0|i0|c0;\H0.6667x;8,26
 91
        0
309
CELLCONTENT_END
  1
FORMATTEDCELLCONTENT_BEGIN
170
     1
300
CONTENTFORMAT
  1
CONTENTFORMAT_BEGIN
 90
        3
 91
        0
 92
        4
 93
        0
300

 40
0.0
140
1.0
 94
        1
 62
     0
340
0
144
0.18
309
CONTENTFORMAT_END
309
FORMATTEDCELLCONTENT_END
309
LINKEDTABLEDATACELL_END
  1
FORMATTEDTABLEDATACELL_BEGIN
300
CELLTABLEFORMAT
  1
TABLEFORMAT_BEGIN
 90
        1
170
     1
 91
      532
 92
        0
 62
   257
 93
        1
300
CONTENTFORMAT
  1
CONTENTFORMAT_BEGIN
 90
        0
 91
        0
 92
      512
 93
        0
300

 40
0.0
140
1.0
 94
        8
 62
     0
340
0
144
0.18
309
CONTENTFORMAT_END
171
     0
 94
        0
309
TABLEFORMAT_END
309
FORMATTEDTABLEDATACELL_END
  1
TABLECELL_BEGIN
 90
        0
 91
        0
309
TABLECELL_END
 91
        0
301
CUSTOMDATA
  1
DATAMAP_BEGIN
 90
        0
309
DATAMAP_END
309
LINKEDTABLEDATAROW_END
  1
FORMATTEDTABLEDATAROW_BEGIN
300
ROWTABLEFORMAT
  1
TABLEFORMAT_BEGIN
 90
        2
170
     0
309
TABLEFORMAT_END
309
FORMATTEDTABLEDATAROW_END
  1
TABLEROW_BEGIN
 90
        0
 40
5.291666666666666
309
TABLEROW_END
301
ROW
  1
LINKEDTABLEDATAROW_BEGIN
 90
        4
300
CELL
  1
LINKEDTABLEDATACELL_BEGIN
 90
        0
300

 91
        0
301
CUSTOMDATA
  1
DATAMAP_BEGIN
 90
        0
309
DATAMAP_END
 92
        0
 95
        1
302
CONTENT
  1
CELLCONTENT_BEGIN
 90
        1
300
VALUE
 90
        4
  1
{\fArial Cyr|b0|i0|c0;\H0.6667x;коэффициент
 91
        0
309
CELLCONTENT_END
  1
FORMATTEDCELLCONTENT_BEGIN
170
     1
300
CONTENTFORMAT
  1
CONTENTFORMAT_BEGIN
 90
        3
 91
        0
 92
        4
 93
        0
300

 40
0.0
140
1.0
 94
        1
 62
     0
340
0
144
0.18
309
CONTENTFORMAT_END
309
FORMATTEDCELLCONTENT_END
309
LINKEDTABLEDATACELL_END
  1
FORMATTEDTABLEDATACELL_BEGIN
300
CELLTABLEFORMAT
  1
TABLEFORMAT_BEGIN
 90
        1
170
     1
 91
      532
 92
        0
 62
   257
 93
        1
300
CONTENTFORMAT
  1
CONTENTFORMAT_BEGIN
 90
        0
 91
        0
 92
      512
 93
        0
300

 40
0.0
140
1.0
 94
        7
 62
     0
340
0
144
0.18
309
CONTENTFORMAT_END
171
     0
 94
        0
309
TABLEFORMAT_END
309
FORMATTEDTABLEDATACELL_END
  1
TABLECELL_BEGIN
 90
        0
 91
        0
309
TABLECELL_END
300
CELL
  1
LINKEDTABLEDATACELL_BEGIN
 90
        0
300

 91
        0
301
CUSTOMDATA
  1
DATAMAP_BEGIN
 90
        0
309
DATAMAP_END
 92
        0
 95
        1
302
CONTENT
  1
CELLCONTENT_BEGIN
 90
        1
300
VALUE
 90
        4
  1
{\fArial Cyr|b0|i0|c0;\H0.6667x;5,6452E-07
 91
        0
309
CELLCONTENT_END
  1
FORMATTEDCELLCONTENT_BEGIN
170
     1
300
CONTENTFORMAT
  1
CONTENTFORMAT_BEGIN
 90
        3
 91
        0
 92
        4
 93
        0
300

 40
0.0
140
1.0
 94
        1
 62
     0
340
0
144
0.18
309
CONTENTFORMAT_END
309
FORMATTEDCELLCONTENT_END
309
LINKEDTABLEDATACELL_END
  1
FORMATTEDTABLEDATACELL_BEGIN
300
CELLTABLEFORMAT
  1
TABLEFORMAT_BEGIN
 90
        1
170
     1
 91
      532
 92
        0
 62
   257
 93
        1
300
CONTENTFORMAT
  1
CONTENTFORMAT_BEGIN
 90
        0
 91
        0
 92
      512
 93
        0
300

 40
0.0
140
1.0
 94
        8
 62
     0
340
0
144
0.18
309
CONTENTFORMAT_END
171
     0
 94
        0
309
TABLEFORMAT_END
309
FORMATTEDTABLEDATACELL_END
  1
TABLECELL_BEGIN
 90
        0
 91
        0
309
TABLECELL_END
300
CELL
  1
LINKEDTABLEDATACELL_BEGIN
 90
        0
300

 91
        0
301
CUSTOMDATA
  1
DATAMAP_BEGIN
 90
        0
309
DATAMAP_END
 92
        0
 95
        1
302
CONTENT
  1
CELLCONTENT_BEGIN
 90
        1
300
VALUE
 90
        4
  1
{\fArial Cyr|b0|i0|c0;\H0.6667x;4,031E-07
 91
        0
309
CELLCONTENT_END
  1
FORMATTEDCELLCONTENT_BEGIN
170
     1
300
CONTENTFORMAT
  1
CONTENTFORMAT_BEGIN
 90
        3
 91
        0
 92
        4
 93
        0
300

 40
0.0
140
1.0
 94
        1
 62
     0
340
0
144
0.18
309
CONTENTFORMAT_END
309
FORMATTEDCELLCONTENT_END
309
LINKEDTABLEDATACELL_END
  1
FORMATTEDTABLEDATACELL_BEGIN
300
CELLTABLEFORMAT
  1
TABLEFORMAT_BEGIN
 90
        1
170
     1
 91
      532
 92
        0
 62
   257
 93
        1
300
CONTENTFORMAT
  1
CONTENTFORMAT_BEGIN
 90
        0
 91
        0
 92
      512
 93
        0
300

 40
0.0
140
1.0
 94
        8
 62
     0
340
0
144
0.18
309
CONTENTFORMAT_END
171
     0
 94
        0
309
TABLEFORMAT_END
309
FORMATTEDTABLEDATACELL_END
  1
TABLECELL_BEGIN
 90
        0
 91
        0
309
TABLECELL_END
300
CELL
  1
LINKEDTABLEDATACELL_BEGIN
 90
        0
300

 91
        0
301
CUSTOMDATA
  1
DATAMAP_BEGIN
 90
        0
309
DATAMAP_END
 92
        0
 95
        1
302
CONTENT
  1
CELLCONTENT_BEGIN
 90
        1
300
VALUE
 90
        4
  1
{\fArial Cyr|b0|i0|c0;\H0.6667x;5,5E-07
 91
        0
309
CELLCONTENT_END
  1
FORMATTEDCELLCONTENT_BEGIN
170
     1
300
CONTENTFORMAT
  1
CONTENTFORMAT_BEGIN
 90
        3
 91
        0
 92
        4
 93
        0
300

 40
0.0
140
1.0
 94
        1
 62
     0
340
0
144
0.18
309
CONTENTFORMAT_END
309
FORMATTEDCELLCONTENT_END
309
LINKEDTABLEDATACELL_END
  1
FORMATTEDTABLEDATACELL_BEGIN
300
CELLTABLEFORMAT
  1
TABLEFORMAT_BEGIN
 90
        1
170
     1
 91
      532
 92
        0
 62
   257
 93
        1
300
CONTENTFORMAT
  1
CONTENTFORMAT_BEGIN
 90
        0
 91
        0
 92
      512
 93
        0
300

 40
0.0
140
1.0
 94
        8
 62
     0
340
0
144
0.18
309
CONTENTFORMAT_END
171
     0
 94
        0
309
TABLEFORMAT_END
309
FORMATTEDTABLEDATACELL_END
  1
TABLECELL_BEGIN
 90
        0
 91
        0
309
TABLECELL_END
 91
        0
301
CUSTOMDATA
  1
DATAMAP_BEGIN
 90
        0
309
DATAMAP_END
309
LINKEDTABLEDATAROW_END
  1
FORMATTEDTABLEDATAROW_BEGIN
300
ROWTABLEFORMAT
  1
TABLEFORMAT_BEGIN
 90
        2
170
     0
309
TABLEFORMAT_END
309
FORMATTEDTABLEDATAROW_END
  1
TABLEROW_BEGIN
 90
        0
 40
1.0
309
TABLEROW_END
301
ROW
  1
LINKEDTABLEDATAROW_BEGIN
 90
        4
300
CELL
  1
LINKEDTABLEDATACELL_BEGIN
 90
        0
300

 91
        0
301
CUSTOMDATA
  1
DATAMAP_BEGIN
 90
        0
309
DATAMAP_END
 92
        0
 95
        1
302
CONTENT
  1
CELLCONTENT_BEGIN
 90
        1
300
VALUE
 90
        4
  1
{\fArial Cyr|b0|i0|c0;\H0.6667x;Время саморазряда, час
 91
        0
309
CELLCONTENT_END
  1
FORMATTEDCELLCONTENT_BEGIN
170
     1
300
CONTENTFORMAT
  1
CONTENTFORMAT_BEGIN
 90
        3
 91
        0
 92
        4
 93
        0
300

 40
0.0
140
1.0
 94
        1
 62
     0
340
0
144
0.18
309
CONTENTFORMAT_END
309
FORMATTEDCELLCONTENT_END
309
LINKEDTABLEDATACELL_END
  1
FORMATTEDTABLEDATACELL_BEGIN
300
CELLTABLEFORMAT
  1
TABLEFORMAT_BEGIN
 90
        1
170
     1
 91
      532
 92
        0
 62
   257
 93
        1
300
CONTENTFORMAT
  1
CONTENTFORMAT_BEGIN
 90
        0
 91
        0
 92
      512
 93
        0
300

 40
0.0
140
1.0
 94
        7
 62
     0
340
0
144
0.18
309
CONTENTFORMAT_END
171
     0
 94
        0
309
TABLEFORMAT_END
309
FORMATTEDTABLEDATACELL_END
  1
TABLECELL_BEGIN
 90
        0
 91
        0
309
TABLECELL_END
300
CELL
  1
LINKEDTABLEDATACELL_BEGIN
 90
        0
300

 91
        0
301
CUSTOMDATA
  1
DATAMAP_BEGIN
 90
        0
309
DATAMAP_END
 92
        0
 95
        1
302
CONTENT
  1
CELLCONTENT_BEGIN
 90
        1
300
VALUE
 90
        4
  1
{\fArial Cyr|b0|i0|c0;\H0.6667x;341,1
 91
        0
309
CELLCONTENT_END
  1
FORMATTEDCELLCONTENT_BEGIN
170
     1
300
CONTENTFORMAT
  1
CONTENTFORMAT_BEGIN
 90
        3
 91
        0
 92
        4
 93
        0
300

 40
0.0
140
1.0
 94
        1
 62
     0
340
0
144
0.18
309
CONTENTFORMAT_END
309
FORMATTEDCELLCONTENT_END
309
LINKEDTABLEDATACELL_END
  1
FORMATTEDTABLEDATACELL_BEGIN
300
CELLTABLEFORMAT
  1
TABLEFORMAT_BEGIN
 90
        1
170
     1
 91
      532
 92
        0
 62
   257
 93
        1
300
CONTENTFORMAT
  1
CONTENTFORMAT_BEGIN
 90
        0
 91
        0
 92
      512
 93
        0
300

 40
0.0
140
1.0
 94
        8
 62
     0
340
0
144
0.18
309
CONTENTFORMAT_END
171
     0
 94
        0
309
TABLEFORMAT_END
309
FORMATTEDTABLEDATACELL_END
  1
TABLECELL_BEGIN
 90
        0
 91
        0
309
TABLECELL_END
300
CELL
  1
LINKEDTABLEDATACELL_BEGIN
 90
        0
300

 91
        0
301
CUSTOMDATA
  1
DATAMAP_BEGIN
 90
        0
309
DATAMAP_END
 92
        0
 95
        1
302
CONTENT
  1
CELLCONTENT_BEGIN
 90
        1
300
VALUE
 90
        4
  1
{\fArial Cyr|b0|i0|c0;\H0.6667x;125,6
 91
        0
309
CELLCONTENT_END
  1
FORMATTEDCELLCONTENT_BEGIN
170
     1
300
CONTENTFORMAT
  1
CONTENTFORMAT_BEGIN
 90
        3
 91
        0
 92
        4
 93
        0
300

 40
0.0
140
1.0
 94
        1
 62
     0
340
0
144
0.18
309
CONTENTFORMAT_END
309
FORMATTEDCELLCONTENT_END
309
LINKEDTABLEDATACELL_END
  1
FORMATTEDTABLEDATACELL_BEGIN
300
CELLTABLEFORMAT
  1
TABLEFORMAT_BEGIN
 90
        1
170
     1
 91
      532
 92
        0
 62
   257
 93
        1
300
CONTENTFORMAT
  1
CONTENTFORMAT_BEGIN
 90
        0
 91
        0
 92
      512
 93
        0
300

 40
0.0
140
1.0
 94
        8
 62
     0
340
0
144
0.18
309
CONTENTFORMAT_END
171
     0
 94
        0
309
TABLEFORMAT_END
309
FORMATTEDTABLEDATACELL_END
  1
TABLECELL_BEGIN
 90
        0
 91
        0
309
TABLECELL_END
300
CELL
  1
LINKEDTABLEDATACELL_BEGIN
 90
        0
300

 91
        0
301
CUSTOMDATA
  1
DATAMAP_BEGIN
 90
        0
309
DATAMAP_END
 92
        0
 95
        1
302
CONTENT
  1
CELLCONTENT_BEGIN
 90
        1
300
VALUE
 90
        4
  1
{\fArial Cyr|b0|i0|c0;\H0.6667x;92,1
 91
        0
309
CELLCONTENT_END
  1
FORMATTEDCELLCONTENT_BEGIN
170
     1
300
CONTENTFORMAT
  1
CONTENTFORMAT_BEGIN
 90
        3
 91
        0
 92
        4
 93
        0
300

 40
0.0
140
1.0
 94
        1
 62
     0
340
0
144
0.18
309
CONTENTFORMAT_END
309
FORMATTEDCELLCONTENT_END
309
LINKEDTABLEDATACELL_END
  1
FORMATTEDTABLEDATACELL_BEGIN
300
CELLTABLEFORMAT
  1
TABLEFORMAT_BEGIN
 90
        1
170
     1
 91
      532
 92
        0
 62
   257
 93
        1
300
CONTENTFORMAT
  1
CONTENTFORMAT_BEGIN
 90
        0
 91
        0
 92
      512
 93
        0
300

 40
0.0
140
1.0
 94
        8
 62
     0
340
0
144
0.18
309
CONTENTFORMAT_END
171
     0
 94
        0
309
TABLEFORMAT_END
309
FORMATTEDTABLEDATACELL_END
  1
TABLECELL_BEGIN
 90
        0
 91
        0
309
TABLECELL_END
 91
        0
301
CUSTOMDATA
  1
DATAMAP_BEGIN
 90
        0
309
DATAMAP_END
309
LINKEDTABLEDATAROW_END
  1
FORMATTEDTABLEDATAROW_BEGIN
300
ROWTABLEFORMAT
  1
TABLEFORMAT_BEGIN
 90
        2
170
     0
309
TABLEFORMAT_END
309
FORMATTEDTABLEDATAROW_END
  1
TABLEROW_BEGIN
 90
        0
 40
5.291666666666666
309
TABLEROW_END
301
ROW
  1
LINKEDTABLEDATAROW_BEGIN
 90
        4
300
CELL
  1
LINKEDTABLEDATACELL_BEGIN
 90
        0
300

 91
        0
301
CUSTOMDATA
  1
DATAMAP_BEGIN
 90
        0
309
DATAMAP_END
 92
        0
 95
        1
302
CONTENT
  1
CELLCONTENT_BEGIN
 90
        1
300
VALUE
 90
        4
  1
{\fArial Cyr|b0|i0|c0;\H0.6667x;Остывание за время разряда, ос
 91
        0
309
CELLCONTENT_END
  1
FORMATTEDCELLCONTENT_BEGIN
170
     1
300
CONTENTFORMAT
  1
CONTENTFORMAT_BEGIN
 90
        3
 91
        0
 92
        4
 93
        0
300

 40
0.0
140
1.0
 94
        1
 62
     0
340
0
144
0.18
309
CONTENTFORMAT_END
309
FORMATTEDCELLCONTENT_END
309
LINKEDTABLEDATACELL_END
  1
FORMATTEDTABLEDATACELL_BEGIN
300
CELLTABLEFORMAT
  1
TABLEFORMAT_BEGIN
 90
        1
170
     1
 91
      532
 92
        0
 62
   257
 93
        1
300
CONTENTFORMAT
  1
CONTENTFORMAT_BEGIN
 90
        0
 91
        0
 92
      512
 93
        0
300

 40
0.0
140
1.0
 94
        7
 62
     0
340
0
144
0.18
309
CONTENTFORMAT_END
171
     0
 94
        0
309
TABLEFORMAT_END
309
FORMATTEDTABLEDATACELL_END
  1
TABLECELL_BEGIN
 90
        0
 91
        0
309
TABLECELL_END
300
CELL
  1
LINKEDTABLEDATACELL_BEGIN
 90
        0
300

 91
        0
301
CUSTOMDATA
  1
DATAMAP_BEGIN
 90
        0
309
DATAMAP_END
 92
        0
 95
        1
302
CONTENT
  1
CELLCONTENT_BEGIN
 90
        1
300
VALUE
 90
        4
  1
{\fArial Cyr|b0|i0|c0;\H0.6667x;1,2
 91
        0
309
CELLCONTENT_END
  1
FORMATTEDCELLCONTENT_BEGIN
170
     1
300
CONTENTFORMAT
  1
CONTENTFORMAT_BEGIN
 90
        3
 91
        0
 92
        4
 93
        0
300

 40
0.0
140
1.0
 94
        1
 62
     0
340
0
144
0.18
309
CONTENTFORMAT_END
309
FORMATTEDCELLCONTENT_END
309
LINKEDTABLEDATACELL_END
  1
FORMATTEDTABLEDATACELL_BEGIN
300
CELLTABLEFORMAT
  1
TABLEFORMAT_BEGIN
 90
        1
170
     1
 91
      532
 92
        0
 62
   257
 93
        1
300
CONTENTFORMAT
  1
CONTENTFORMAT_BEGIN
 90
        0
 91
        0
 92
      512
 93
        0
300

 40
0.0
140
1.0
 94
        8
 62
     0
340
0
144
0.18
309
CONTENTFORMAT_END
171
     0
 94
        0
309
TABLEFORMAT_END
309
FORMATTEDTABLEDATACELL_END
  1
TABLECELL_BEGIN
 90
        0
 91
        0
309
TABLECELL_END
300
CELL
  1
LINKEDTABLEDATACELL_BEGIN
 90
        0
300

 91
        0
301
CUSTOMDATA
  1
DATAMAP_BEGIN
 90
        0
309
DATAMAP_END
 92
        0
 95
        1
302
CONTENT
  1
CELLCONTENT_BEGIN
 90
        1
300
VALUE
 90
        4
  1
{\fArial Cyr|b0|i0|c0;\H0.6667x;0,7
 91
        0
309
CELLCONTENT_END
  1
FORMATTEDCELLCONTENT_BEGIN
170
     1
300
CONTENTFORMAT
  1
CONTENTFORMAT_BEGIN
 90
        3
 91
        0
 92
        4
 93
        0
300

 40
0.0
140
1.0
 94
        1
 62
     0
340
0
144
0.18
309
CONTENTFORMAT_END
309
FORMATTEDCELLCONTENT_END
309
LINKEDTABLEDATACELL_END
  1
FORMATTEDTABLEDATACELL_BEGIN
300
CELLTABLEFORMAT
  1
TABLEFORMAT_BEGIN
 90
        1
170
     1
 91
      532
 92
        0
 62
   257
 93
        1
300
CONTENTFORMAT
  1
CONTENTFORMAT_BEGIN
 90
        0
 91
        0
 92
      512
 93
        0
300

 40
0.0
140
1.0
 94
        8
 62
     0
340
0
144
0.18
309
CONTENTFORMAT_END
171
     0
 94
        0
309
TABLEFORMAT_END
309
FORMATTEDTABLEDATACELL_END
  1
TABLECELL_BEGIN
 90
        0
 91
        0
309
TABLECELL_END
300
CELL
  1
LINKEDTABLEDATACELL_BEGIN
 90
        0
300

 91
        0
301
CUSTOMDATA
  1
DATAMAP_BEGIN
 90
        0
309
DATAMAP_END
 92
        0
 95
        1
302
CONTENT
  1
CELLCONTENT_BEGIN
 90
        1
300
VALUE
 90
        4
  1
{\fArial Cyr|b0|i0|c0;\H0.6667x;0,9
 91
        0
309
CELLCONTENT_END
  1
FORMATTEDCELLCONTENT_BEGIN
170
     1
300
CONTENTFORMAT
  1
CONTENTFORMAT_BEGIN
 90
        3
 91
        0
 92
        4
 93
        0
300

 40
0.0
140
1.0
 94
        1
 62
     0
340
0
144
0.18
309
CONTENTFORMAT_END
309
FORMATTEDCELLCONTENT_END
309
LINKEDTABLEDATACELL_END
  1
FORMATTEDTABLEDATACELL_BEGIN
300
CELLTABLEFORMAT
  1
TABLEFORMAT_BEGIN
 90
        1
170
     1
 91
      532
 92
        0
 62
   257
 93
        1
300
CONTENTFORMAT
  1
CONTENTFORMAT_BEGIN
 90
        0
 91
        0
 92
      512
 93
        0
300

 40
0.0
140
1.0
 94
        8
 62
     0
340
0
144
0.18
309
CONTENTFORMAT_END
171
     0
 94
        0
309
TABLEFORMAT_END
309
FORMATTEDTABLEDATACELL_END
  1
TABLECELL_BEGIN
 90
        0
 91
        0
309
TABLECELL_END
 91
        0
301
CUSTOMDATA
  1
DATAMAP_BEGIN
 90
        0
309
DATAMAP_END
309
LINKEDTABLEDATAROW_END
  1
FORMATTEDTABLEDATAROW_BEGIN
300
ROWTABLEFORMAT
  1
TABLEFORMAT_BEGIN
 90
        2
170
     0
309
TABLEFORMAT_END
309
FORMATTEDTABLEDATAROW_END
  1
TABLEROW_BEGIN
 90
        0
 40
5.291666666666666
309
TABLEROW_END
 92
        0
100
AcDbFormattedTableData
300
TABLEFORMAT
  1
TABLEFORMAT_BEGIN
 90
        4
170
     0
309
TABLEFORMAT_END
 90
        0
100
AcDbTableContent
340
0
  0
DICTIONARY
  5
352A
330
22
100
AcDbDictionary
280
     1
281
     1
  3
ACAD_XREC_ROUNDTRIP
360
352B
  0
DICTIONARY
  5
352D
330
D3
100
AcDbDictionary
280
     1
281
     1
  3
ACAD_XREC_ROUNDTRIP
360
352E
  0
DICTIONARY
  5
352F
330
D7
100
AcDbDictionary
280
     1
281
     1
  3
ACAD_XREC_ROUNDTRIP
360
3530
  0
DICTIONARY
  5
3533
330
ED
100
AcDbDictionary
280
     1
281
     1
  3
ACAD_XREC_ROUNDTRIP
360
3534
  0
DICTIONARY
  5
3531
330
EC
100
AcDbDictionary
280
     1
281
     1
  3
ACAD_XREC_ROUNDTRIP
360
3532
  0
DICTIONARY
  5
173
330
EE
100
AcDbDictionary
280
     1
281
     1
  3
ACAD_XREC_ROUNDTRIP
360
3535
  3
BUMPTILE
360
175
  3
DIFFUSETILE
360
174
  3
OPACITYTILE
360
176
  3
REFLECTIONTILE
360
177
  0
DICTIONARY
  5
162
330
7F
100
AcDbDictionary
280
     1
281
     1
  3
ACAD_ROUNDTRIP_2008_TABLESTYLE_CELLSTYLEMAP
360
3525
  3
ACAD_XREC_ROUNDTRIP
360
352C
  0
XRECORD
  5
352B
102
{ACAD_REACTORS
330
352A
102
}
330
352A
100
AcDbXrecord
280
     1
102
SHADEPLOT
 70
     0
102
SHADEPLOTRESLEVEL
 70
     2
102
SHADEPLOTCUSTOMDPI
 70
   300
  0
XRECORD
  5
352E
102
{ACAD_REACTORS
330
352D
102
}
330
352D
100
AcDbXrecord
280
     1
102
SHADEPLOT
 70
     0
102
SHADEPLOTRESLEVEL
 70
     2
102
SHADEPLOTCUSTOMDPI
 70
   300
  0
XRECORD
  5
3530
102
{ACAD_REACTORS
330
352F
102
}
330
352F
100
AcDbXrecord
280
     1
102
SHADEPLOT
 70
     0
102
SHADEPLOTRESLEVEL
 70
     2
102
SHADEPLOTCUSTOMDPI
 70
   300
  0
XRECORD
  5
3534
102
{ACAD_REACTORS
330
3533
102
}
330
3533
100
AcDbXrecord
280
     1
102
MATERIAL
148
0.0
149
0.0
149
0.0
 93
        0
 94
       63
282
     0
 72
     1
 77
     1
171
     1
175
     1
179
     1
273
     0
  0
XRECORD
  5
3532
102
{ACAD_REACTORS
330
3531
102
}
330
3531
100
AcDbXrecord
280
     1
102
MATERIAL
148
0.0
149
0.0
149
0.0
 93
        0
 94
       63
282
     0
 72
     1
 77
     1
171
     1
175
     1
179
     1
273
     0
  0
XRECORD
  5
3535
102
{ACAD_REACTORS
330
173
102
}
330
173
100
AcDbXrecord
280
     1
102
MATERIAL
148
0.0
149
0.0
149
0.0
 93
        0
 94
       63
282
     0
 72
     1
 77
     1
171
     1
175
     1
179
     1
273
     0
  0
XRECORD
  5
175
102
{ACAD_REACTORS
330
173
102
}
330
173
100
AcDbXrecord
280
     1
270
     1
271
     1
  0
XRECORD
  5
174
102
{ACAD_REACTORS
330
173
102
}
330
173
100
AcDbXrecord
280
     1
270
     1
271
     1
  0
XRECORD
  5
176
102
{ACAD_REACTORS
330
173
102
}
330
173
100
AcDbXrecord
280
     1
270
     1
271
     1
  0
XRECORD
  5
177
102
{ACAD_REACTORS
330
173
102
}
330
173
100
AcDbXrecord
280
     1
270
     1
271
     1
  0
CELLSTYLEMAP
  5
3525
102
{ACAD_REACTORS
330
162
102
}
330
162
100
AcDbCellStyleMap
 90
        3
300
CELLSTYLE
  1
TABLEFORMAT_BEGIN
 90
        5
170
     1
 91
        0
 92
    32768
 62
   257
 93
        1
300
CONTENTFORMAT
  1
CONTENTFORMAT_BEGIN
 90
        0
 91
        0
 92
      512
 93
        0
300

 40
0.0
140
1.0
 94
        5
 62
     0
340
11
144
6.0
309
CONTENTFORMAT_END
171
     1
301
MARGIN
  1
CELLMARGIN_BEGIN
 40
1.5
 40
1.5
 40
1.5
 40
1.5
 40
4.5
 40
4.5
309
CELLMARGIN_END
 94
        6
 95
        1
302
GRIDFORMAT
  1
GRIDFORMAT_BEGIN
 90
        0
 91
        1
 62
     0
 92
       -2
340
14
 93
        0
 40
1.125
309
GRIDFORMAT_END
 95
        2
302
GRIDFORMAT
  1
GRIDFORMAT_BEGIN
 90
        0
 91
        1
 62
     0
 92
       -2
340
14
 93
        0
 40
1.125
309
GRIDFORMAT_END
 95
        4
302
GRIDFORMAT
  1
GRIDFORMAT_BEGIN
 90
        0
 91
        1
 62
     0
 92
       -2
340
14
 93
        0
 40
1.125
309
GRIDFORMAT_END
 95
        8
302
GRIDFORMAT
  1
GRIDFORMAT_BEGIN
 90
        0
 91
        1
 62
     0
 92
       -2
340
14
 93
        0
 40
1.125
309
GRIDFORMAT_END
 95
       16
302
GRIDFORMAT
  1
GRIDFORMAT_BEGIN
 90
        0
 91
        1
 62
     0
 92
       -2
340
14
 93
        0
 40
1.125
309
GRIDFORMAT_END
 95
       32
302
GRIDFORMAT
  1
GRIDFORMAT_BEGIN
 90
        0
 91
        1
 62
     0
 92
       -2
340
14
 93
        0
 40
1.125
309
GRIDFORMAT_END
309
TABLEFORMAT_END
  1
CELLSTYLE_BEGIN
 90
        1
 91
        1
300
_TITLE
309
CELLSTYLE_END
300
CELLSTYLE
  1
TABLEFORMAT_BEGIN
 90
        5
170
     1
 91
        0
 92
        0
 62
   257
 93
        1
300
CONTENTFORMAT
  1
CONTENTFORMAT_BEGIN
 90
        0
 91
        0
 92
      512
 93
        0
300

 40
0.0
140
1.0
 94
        5
 62
     0
340
11
144
4.5
309
CONTENTFORMAT_END
171
     1
301
MARGIN
  1
CELLMARGIN_BEGIN
 40
1.5
 40
1.5
 40
1.5
 40
1.5
 40
4.5
 40
4.5
309
CELLMARGIN_END
 94
        6
 95
        1
302
GRIDFORMAT
  1
GRIDFORMAT_BEGIN
 90
        0
 91
        1
 62
     0
 92
       -2
340
14
 93
        0
 40
1.125
309
GRIDFORMAT_END
 95
        2
302
GRIDFORMAT
  1
GRIDFORMAT_BEGIN
 90
        0
 91
        1
 62
     0
 92
       -2
340
14
 93
        0
 40
1.125
309
GRIDFORMAT_END
 95
        4
302
GRIDFORMAT
  1
GRIDFORMAT_BEGIN
 90
        0
 91
        1
 62
     0
 92
       -2
340
14
 93
        0
 40
1.125
309
GRIDFORMAT_END
 95
        8
302
GRIDFORMAT
  1
GRIDFORMAT_BEGIN
 90
        0
 91
        1
 62
     0
 92
       -2
340
14
 93
        0
 40
1.125
309
GRIDFORMAT_END
 95
       16
302
GRIDFORMAT
  1
GRIDFORMAT_BEGIN
 90
        0
 91
        1
 62
     0
 92
       -2
340
14
 93
        0
 40
1.125
309
GRIDFORMAT_END
 95
       32
302
GRIDFORMAT
  1
GRIDFORMAT_BEGIN
 90
        0
 91
        1
 62
     0
 92
       -2
340
14
 93
        0
 40
1.125
309
GRIDFORMAT_END
309
TABLEFORMAT_END
  1
CELLSTYLE_BEGIN
 90
        2
 91
        1
300
_HEADER
309
CELLSTYLE_END
300
CELLSTYLE
  1
TABLEFORMAT_BEGIN
 90
        5
170
     1
 91
        0
 92
        0
 62
   257
 93
        1
300
CONTENTFORMAT
  1
CONTENTFORMAT_BEGIN
 90
        0
 91
        0
 92
      512
 93
        0
300

 40
0.0
140
1.0
 94
        2
 62
     0
340
11
144
4.5
309
CONTENTFORMAT_END
171
     1
301
MARGIN
  1
CELLMARGIN_BEGIN
 40
1.5
 40
1.5
 40
1.5
 40
1.5
 40
4.5
 40
4.5
309
CELLMARGIN_END
 94
        6
 95
        1
302
GRIDFORMAT
  1
GRIDFORMAT_BEGIN
 90
        0
 91
        1
 62
     0
 92
       -2
340
14
 93
        0
 40
1.125
309
GRIDFORMAT_END
 95
        2
302
GRIDFORMAT
  1
GRIDFORMAT_BEGIN
 90
        0
 91
        1
 62
     0
 92
       -2
340
14
 93
        0
 40
1.125
309
GRIDFORMAT_END
 95
        4
302
GRIDFORMAT
  1
GRIDFORMAT_BEGIN
 90
        0
 91
        1
 62
     0
 92
       -2
340
14
 93
        0
 40
1.125
309
GRIDFORMAT_END
 95
        8
302
GRIDFORMAT
  1
GRIDFORMAT_BEGIN
 90
        0
 91
        1
 62
     0
 92
       -2
340
14
 93
        0
 40
1.125
309
GRIDFORMAT_END
 95
       16
302
GRIDFORMAT
  1
GRIDFORMAT_BEGIN
 90
        0
 91
        1
 62
     0
 92
       -2
340
14
 93
        0
 40
1.125
309
GRIDFORMAT_END
 95
       32
302
GRIDFORMAT
  1
GRIDFORMAT_BEGIN
 90
        0
 91
        1
 62
     0
 92
       -2
340
14
 93
        0
 40
1.125
309
GRIDFORMAT_END
309
TABLEFORMAT_END
  1
CELLSTYLE_BEGIN
 90
        3
 91
        2
300
_DATA
309
CELLSTYLE_END
  0
XRECORD
  5
352C
102
{ACAD_REACTORS
330
162
102
}
330
162
100
AcDbXrecord
280
     1
102
ACAD_ROUNDTRIP_PRE2007_TABLESTYLE
 90
      512
 91
        0
  1

 92
      512
 93
        0
  2

 94
      512
 95
        0
  3

  0
ENDSEC
  0
EOF
